パンキッシュ☆
mihimaru GT

EXTREME

Level: 8
BPM: 150
Notes: 551

1
口口口口 |----|
口口口口 |----|
口口口口 |----|
①口口① |--①-|
2
①④④① |①---|
③口口③ |②-③-|
②③③② |--④-|
⑤②②⑤ |--⑤-|
3
①口口① |①---|
口口口口 |----|
口口口口 |----|
②口口② |--②-|
4
①④④① |①---|
③口口③ |②-③-|
②③③② |--④-|
⑤②②⑤ |--⑤-|
5
①⑨⑩① |①②③-|
口②③口 |④⑤⑥-|
④⑦⑧④ |⑦⑧-⑨|
⑪⑤⑥⑪ |⑩-⑪-|
6
①④④① |①---|
③口口③ |②-③-|
②③③② |--④-|
⑤②②⑤ |--⑤-|
7
①口口① |①---|
口口口口 |----|
口口口口 |----|
②口口② |--②-|
8
①④④① |①---|
③口口③ |②-③-|
②③③② |--④-|
⑤②②⑤ |--⑤-|
9
①口口① |①---|
口口口口 |----|
口口口口
口口口口

③口口③
口口口口
口口口口 |----|
口②②口 |②-③-|
10
口⑪⑪口 |①②③-|
⑤⑥口③ |④⑤⑥-|
④⑩⑨② |⑦⑧⑨⑩|
①⑧⑦① |⑪---|
11
④⑤⑥口 |①-②-|
口③②① |③-④-|
⑦⑧口口 |⑤-⑥-|
口口口口 |⑦-⑧-|
12
口口口⑤ |①-②-|
⑥口口口 |③-④-|
口口①⑦ |⑤-⑥-|
⑧④③② |⑦-⑧-|
13
④⑤⑥口 |①-②-|
口③②① |③-④-|
⑦⑧口口 |⑤-⑥-|
口口口口 |⑦-⑧-|
14
口口口⑤ |①-②-|
⑥口口口 |③-④-|
口口①⑦ |⑤-⑥-|
⑧④③② |⑦-⑧-|
15
①①④⑤ |--①-|
口口③⑥ |--②-|
口口②口 |③-④-|
口口口口 |⑤-⑥-|
16
③口口口 |--①-|
②口口口 |②-③-|
①口口口
口口口口

口口④口
口口⑤④
⑥口口口 |--④-|
口⑥口口 |⑤-⑥-|
17
④③口口 |①---|
②②⑤⑤ |②---|
⑤⑤②② |③-④-|
①口③④ |--⑤-|
18
口⑤④口 |--①-|
①口口口 |--②-|
口口③② |--③-|
口口口口 |④-⑤-|
19
②口口② |①---|
口口口口 |----|
口①口口 |②---|
口③③口 |③---|
20
口口口口 |①---|
①③③① |②-③-|
③②②③
②口口②

⑤口口口
⑤口口口
口口口口 |--④-|
口④④口 |--⑤-|
21
口口口① |①---|
口口口① |----|
口口口口 |----|
口口口口 |----|
22
口口口口 |①-②③|
口⑥⑤① |④-⑤⑥|
④口口口
口②③口

口口口口
⑧口口⑨
口⑩⑪⑦ |⑦-⑧⑨|
口⑫⑬口 |⑩⑪⑫⑬|
23
口①①口 |--①-|
口②②口 |--②-|
口口口口
口口口口

③⑤⑤③
口口口口
口口口口 |--③-|
口④④口 |④-⑤-|
24
口④口③ |--①-|
④⑤①② |②-③-|
②①口⑥ |--④-|
③口⑥口 |⑤-⑥-|
25
口⑥②口 |①---|
⑥口③② |②-③-|
④口口⑥ |④-⑤-|
⑤④⑥① |--⑥-|
26
口口口口 |--①-|
⑦⑦②① |②-③-|
④③⑥⑥ |④-⑤-|
口口⑤⑤ |⑥-⑦-|
27
①①口口 |①---|
口口口口 |----|
口口口口
口口口口

③口口②
口③②口
口口口口 |②---|
口口口口 |③---|
28
口③③口 |①---|
口⑤口口 |②-③-|
④①①④ |--④-|
①②②① |--⑤-|
29
口口口口 |①-②-|
口口①口 |③④⑤-|
口③④口
口⑤口②

口⑦⑧口
口⑨口⑥
口口口口 |⑥-⑦⑧|
⑩口口⑪ |⑨-⑩⑪|
30
口⑥⑦口 |-①②③|
④⑧口⑤ |-④⑤-|
⑨①②口 |⑥⑦⑧-|
口③口口 |--⑨-|
31
⑦④⑤⑧ |①-②③|
口⑥口口 |--④⑤|
口口口① |⑥-⑦-|
⑨②③口 |⑧-⑨-|
32
口④⑤口 |①-②③|
口⑥口口 |-④⑤⑥|
口口口口
口②③①

口口口口
口口⑦口
口⑧⑨口 |⑦⑧⑨-|
⑩口口⑩ |⑩---|
33
①①②② |①---|
③⑨口④ |②-③-|
口⑦⑧口 |④-⑤⑥|
⑤口口⑥ |-⑦⑧⑨|
34
④②③⑤ |①②③-|
口口①口 |④-⑤-|
口口口口
口口口口

口口口口
口⑧⑧口
口⑦⑦口 |⑥--⑦|
口⑥⑥口 |--⑧-|
35
①②③⑥ |--①-|
口口⑥⑤ |②-③-|
口口⑤④ |④--⑤|
口口④口 |--⑥-|
36
①②③口 |--①-|
⑤口口⑤ |②-③-|
④⑤⑤④ |④--⑤|
口④④口 |----|
37
③⑦⑧④ |①-②-|
口⑤⑥口 |③-④-|
⑨口口⑨ |⑤⑥⑦⑧|
①口口② |--⑨-|
38
口口口口 |①-②-|
口④④口 |③-④-|
口③③口
①②②①

⑥⑤⑤⑦
⑥口口⑦
口口口口 |⑤-⑥-|
⑧口口口 |⑦-⑧-|
39
口口口口 |①---|
口口口口 |--②-|
②口口③ |③---|
口口口① |----|
40
口①①口 |①---|
②口口③ |②-③-|
⑤④④口 |--④-|
口⑤口口 |--⑤-|
41
口口口口 |①---|
口②③口 |--②-|
口口口① |③---|
④口①④ |--④-|
42
①④④① |①---|
口③③口 |②-③-|
口口口口 |--④-|
⑤②②口 |--⑤-|
43
口④口口 |①---|
口口口口 |--②-|
②口口③ |③---|
口口口① |--④-|
44
口口①口 |①---|
②口口③ |②-③-|
⑤④④口 |--④-|
口⑤口口 |--⑤-|
45
口口口口 |①---|
口②③口 |--②-|
口口口① |③---|
④口①④ |--④-|
46
①④④① |①---|
③口口③ |②-③-|
②③③② |--④-|
⑤②②⑤ |--⑤-|
47
①口口① |①---|
口口口口 |----|
口口口口 |----|
②口口② |--②-|
48
①④④① |①---|
③口口③ |②-③-|
②③③② |--④-|
⑤②②⑤ |--⑤-|
49
①⑨⑩① |①②③-|
口②③口 |④⑤⑥-|
④⑦⑧④ |⑦⑧-⑨|
⑪⑤⑥⑪ |⑩-⑪-|
50
①④④① |①---|
③口口③ |②-③-|
②③③② |--④-|
⑤②②⑤ |--⑤-|
51
①口口① |①---|
口口口口 |----|
口口口口 |----|
②口口② |--②-|
52
①④④① |①---|
③口口③ |②-③-|
②③③② |--④-|
⑤②②⑤ |--⑤-|
53
①口口① |①②③④|
⑥②③⑦ |⑤-⑥⑦|
口④⑤口
口口口口

⑫口口⑪
口口口口
⑧口口口 |-⑧⑨⑩|
口⑩⑨口 |-⑪⑫-|
54
口⑪⑪口 |①②③-|
⑤⑥口③ |④⑤⑥-|
④⑩⑨② |⑦⑧⑨⑩|
①⑧⑦① |⑪---|
55
④⑤⑥口 |①-②-|
口③②① |③-④-|
⑦⑧口口 |⑤-⑥-|
口口口口 |⑦-⑧-|
56
口口口⑤ |①-②-|
⑥口口口 |③-④-|
口口①⑦ |⑤-⑥-|
⑧④③② |⑦-⑧-|
57
④⑤⑥口 |①-②-|
口③②① |③-④-|
⑦⑧口口 |⑤-⑥-|
口口口口 |⑦-⑧-|
58
口口口⑤ |①-②-|
⑥口口口 |③-④-|
口口①⑦ |⑤-⑥-|
⑧④③② |⑦-⑧-|
59
口口口口 |①---|
口①①口 |----|
口①①口 |----|
口口口口 |----|
60
口口口口 |----|
口口口口 |----|
口口口口 |----|
口口口口 |----|
61
口口口口 |----|
口口口口 |----|
口口口口 |----|
口口口口 |----|
62
③口口③ |----|
口口口口 |--①②|
口①②口 |③---|
口口口口 |----|


不确定度: 0

最終更新:2012年11月23日 02:39