夏祭り

BASIC

Level: 2
BPM: 141-143
Notes: 157

BPM: 141.9
1
口口口口 |----|
口口口口 |----|
口口口口 |----|
口口口口 |----|
2
口口口口 |①---|
口口口口 |----|
口口②口 |②---|
口口①口 |----|
3
口口②口 |①---|
口口①口 |----|
口口口口 |②---|
口口口口 |----|
4
口①口口 |①---|
口②口口 |----|
口口口口 |②---|
口口口口 |----|
5
口口口口 |①---|
口口口口 |----|
口①口口 |②---|
口②口口 |----|
6
口口口口 |①---|
口口口口 |----|
口口口② |②---|
口口①口 |----|
7
口口②口 |①---|
口口口① |----|
口口口口 |②---|
口口口口 |----|
8
口口口口 |①---|
口①①口 |----|
口口口口 |----|
口口口口 |----|
9
口口口口 |①---|
口①①口 |----|
口口口口 |----|
口口口口 |----|
10
口口口口 |①---|
口口口口 |----|
口②口口 |②---|
口①口口 |----|
11
口②口口 |①---|
口①口口 |----|
口口口口 |②---|
口口口口 |----|
12
口口①口 |①---|
口口②口 |----|
口口口口 |②---|
口口口口 |----|
13
口口口口 |①---|
口口口口 |----|
口口①口 |②---|
口口②口 |----|
14
口口口口 |①---|
口口口口 |----|
口口口口 |②---|
②①口口 |----|
15
口口口口 |①---|
②口口口 |----|
①口口口 |②---|
口口口口 |----|
16
口①②口 |①---|
口③④口 |②---|
口口口口 |③---|
口口口口 |④---|
17
口口口口 |①---|
口口口口 |②---|
口③④口 |③---|
口①②口 |④---|
18
③口口④ |①---|
①口口② |②---|
口口口口 |③---|
口口口口 |④---|
19
口口口口 |①---|
口①②口 |②---|
口③④口 |③---|
口口口口 |④---|
20
口口口口 |①---|
口口口口 |----|
①②口口 |②---|
口口口口 |----|
21
口口口口 |①---|
口口①② |----|
口口口口 |②---|
口口口口 |----|
22
口口口口 |①---|
口口口口 |----|
②口口① |②---|
口口口口 |----|
23
口口口口 |①---|
②口口① |----|
口口口口 |②---|
口口口口 |----|
24
口①①口 |①---|
口②②口 |----|
口口口口 |②---|
口口口口 |----|
25
口口口口 |①---|
口口口口 |----|
口①①口 |----|
口口口口 |----|
26
口口口口 |①---|
口口口口 |----|
②口口② |②---|
①口口① |----|
27
口口口口 |①---|
①口口① |----|
口口口口 |----|
口口口口 |----|
28
口口口口 |①---|
口口口口 |----|
②①口口 |②---|
口口口口 |----|
29
口口口口 |①---|
口口口口 |----|
口口①② |②---|
口口口口 |----|
30
口口口口 |①---|
②口口口 |----|
①口口口 |②---|
口口口口 |----|
31
口口口口 |①---|
口口口② |----|
口口口① |②---|
口口口口 |----|
32
①口口① |①---|
②口口② |----|
口口口口 |②---|
口口口口 |----|
33
口口口口 |①---|
口口口口 |----|
①口口① |----|
口口口口 |----|
34
口口口口 |①---|
口口口口 |----|
口②②口 |②---|
口①①口 |----|

BPM: 142
35
口口口口 |①---|
口①①口 |----|
口口口口 |----|
口口口口 |----|
36
口口口口 |①---|
口④口口 |②---|
口②③口 |③---|
口口①口 |④---|
37
口②③④ |①---|
口口①口 |②---|
口口口口 |③---|
口口口口 |④---|
38
口口口口 |①---|
口口口① |②---|
口口口② |③---|
口口④③ |④---|
39
口口口口 |①---|
口②②口 |----|
口①①口 |②---|
口口口口 |----|
40
①口口口 |①---|
②口口口 |②---|
③口口口 |③---|
④口口口 |④---|
41
口口口口 |①---|
口口口口 |②---|
口口④口 |③---|
口①②③ |④---|
42
②③④口 |①---|
口①口口 |②---|
口口口口 |③---|
口口口口 |④---|
43
口口口① |①---|
口口口口 |----|
口口口口 |----|
口口口口 |----|
44
口口口口 |①---|
口口④口 |②---|
口③②口 |③---|
口①口口 |④---|
45
④③②口 |①---|
口①口口 |②---|
口口口口 |③---|
口口口口 |④---|
46
口口口口 |①---|
①口口口 |②---|
②口口口 |③---|
③④口口 |④---|
47
口口口口 |①---|
口②②口 |----|
口①①口 |②---|
口口口口 |----|
48
口口口① |①---|
口口口② |②---|
口口口③ |③---|
口口口④ |④---|
49
口口口口 |①---|
口口口口 |②---|
口④口口 |③---|
③②①口 |④---|

BPM: 143
50
口④③② |①---|
口口①口 |②---|
口口口口 |③---|
口口口口 |④---|
51
①口口② |①---|
③口口④ |②---|
口口口口 |③---|
口口口口 |④---|
52
口口口口 |①---|
口口口口 |②---|
口③④口 |③---|
口①②口 |④---|
53
③口口④ |①---|
①口口② |②---|
口口口口 |③---|
口口口口 |④---|
54
口口口口 |①---|
口①②口 |②---|
口③④口 |③---|
口口口口 |④---|


不确定度: 0

最終更新:2012年11月23日 02:38