夏祭り

ADVANCED

Level: 6
BPM: 141-143
Notes: 296

BPM: 141.9
1
口口口口 |----|
口口口口 |----|
口口口口 |----|
口口口口 |----|
2
口口口口 |①---|
口口口口 |----|
口②①口 |②---|
口口口口 |----|
3
口口口口 |①---|
口口①口 |----|
口口口口 |②---|
②③口口 |③---|
4
口口口口 |①---|
口口口口 |----|
②口口口 |②---|
口口①口 |----|
5
口口口口 |①---|
口口口口 |----|
口②③① |②---|
口口口口 |③---|
6
口口口口 |①---|
口②口口 |----|
口口口① |②---|
口口口口 |----|
7
口②③口 |①---|
口口①口 |----|
口口口口 |②---|
口口口口 |③---|
8
口口口① |①---|
口口口口 |----|
口口口口 |----|
口口口口 |----|
9
口口口口 |①---|
①口口① |----|
口口口口 |----|
口口口口 |----|
10
口口口口 |①---|
口口口口 |----|
口口口口 |②---|
口②①口 |----|
11
口口口口 |①---|
口口口口 |----|
口口①口 |②---|
②③口口 |③---|
12
口口口口 |①---|
口口口口 |----|
口②口口 |②---|
口口①口 |----|
13
口口口口 |①---|
②③口口 |----|
口口①口 |②---|
口口口口 |③---|
14
口口口口 |①---|
口口①口 |----|
口②口口 |②---|
口口口口 |----|
15
口口口口 |①---|
口②口口 |----|
口口①口 |②---|
口口口口 |----|
16
口⑫⑪⑩ |①②③-|
⑦⑧⑨口 |④⑤⑥-|
口⑥⑤④ |⑦⑧⑨-|
①②③口 |⑩⑪⑫-|
17
口⑫⑪⑩ |①②③-|
⑦⑧⑨口 |④⑤⑥-|
口⑥⑤④ |⑦⑧⑨-|
①②③口 |⑩⑪⑫-|
18
口⑫⑪⑩ |①②③-|
⑦⑧⑨口 |④⑤⑥-|
口⑥⑤④ |⑦⑧⑨-|
①②③口 |⑩⑪⑫-|
19
⑩口口⑪ |①②③-|
⑦⑧⑨口 |④⑤⑥-|
口⑥⑤④ |⑦⑧⑨-|
①②③口 |⑩-⑪-|
20
口口①口 |①---|
③④口② |②-③-|
⑤口口⑥ |④---|
口口口口 |⑤-⑥-|
21
口口口口 |①--②|
④口口⑤ |③-④-|
口口①口 |⑤---|
⑥②③⑦ |⑥-⑦-|
22
口口口口 |①---|
⑤口口⑥ |②-③-|
③④口② |④---|
口口①口 |⑤-⑥-|
23
口②③口 |①--②|
口口①口 |③-④-|
④口⑦⑤ |⑤---|
口⑥口口 |⑥-⑦-|
24
口②②口 |①---|
①口口① |②---|
口③③口 |③---|
口④⑤口 |④-⑤-|
25
口口口口 |①---|
口口口口 |----|
①③口① |----|
口口②口 |②-③-|
26
②口口② |①---|
④①①⑤ |②---|
③口口③ |③---|
口口口口 |④-⑤-|
27
②口口③ |①---|
口口口口 |----|
口①①口 |----|
口口口口 |②-③-|
28
口口①口 |①---|
③④口② |②-③-|
⑤口口⑥ |④---|
口口口口 |⑤-⑥-|
29
口口口口 |①--②|
④口口⑤ |③-④-|
口口①口 |⑤---|
⑥②③⑦ |⑥-⑦-|
30
口口口口 |①---|
⑤口口⑥ |②-③-|
③④口② |④---|
口口①口 |⑤-⑥-|
31
口②③口 |①--②|
口口①口 |③-④-|
④口⑦⑤ |⑤---|
口⑥口口 |⑥-⑦-|
32
口②②口 |①---|
①口口① |②---|
口③③口 |③---|
口④⑤口 |④-⑤-|
33
口口口口 |①---|
口口口口 |----|
①③口① |----|
口口②口 |②-③-|
34
②口口② |①---|
④①①⑤ |②---|
③口口③ |③---|
口口口口 |④-⑤-|

BPM: 142
35
口口口口 |①---|
口口口口 |----|
口①①口 |----|
口口口口 |----|
36
口口口口 |①---|
③口口③ |②---|
②④⑤② |③---|
口①①口 |④-⑤-|
37
口②③口 |①---|
口①口口 |②---|
④⑤口口 |③---|
口口口口 |④-⑤-|
38
口口口口 |①---|
口口②③ |②---|
口口①口 |③---|
口口⑤④ |④-⑤-|
39
口口口口 |①---|
口口口口 |----|
口②②口 |②---|
口①口口 |----|
40
①口口② |①---|
口③口口 |②---|
口④⑤口 |③---|
口口口口 |④-⑤-|
41
口口口口 |①---|
④⑤口口 |②---|
口口口① |③---|
②口口③ |④-⑤-|
42
口口口口 |①---|
口口①③ |②---|
④口口② |③---|
口口口口 |④---|
43
口口口口 |①---|
①口口口 |----|
口口口口 |----|
口口口口 |----|
44
口口口口 |①---|
③口口③ |②---|
②④⑤② |③---|
口①①口 |④-⑤-|
45
口②③口 |①---|
口①口口 |②---|
④⑤口口 |③---|
口口口口 |④-⑤-|
46
口口口口 |①---|
口口②③ |②---|
口口①口 |③---|
口口⑤④ |④-⑤-|
47
口口口口 |①---|
口口口口 |----|
口②②口 |②---|
口①口口 |----|
48
①口口② |①---|
口③口口 |②---|
口④⑤口 |③---|
口口口口 |④-⑤-|
49
口口口口 |①---|
④⑤口口 |②---|
口口口① |③---|
②口口③ |④-⑤-|

BPM: 143
50
口口口口 |①---|
口口①③ |②---|
④口口② |③---|
口口口口 |④---|
51
口⑫⑪⑩ |①②③-|
⑦⑧⑨口 |④⑤⑥-|
口⑥⑤④ |⑦⑧⑨-|
①②③口 |⑩⑪⑫-|
52
口⑫⑪⑩ |①②③-|
⑦⑧⑨口 |④⑤⑥-|
口⑥⑤④ |⑦⑧⑨-|
①②③口 |⑩⑪⑫-|
53
口⑫⑪⑩ |①②③-|
⑦⑧⑨口 |④⑤⑥-|
口⑥⑤④ |⑦⑧⑨-|
①②③口 |⑩⑪⑫-|
54
口⑫⑪⑩ |①②③-|
⑦⑧⑨口 |④⑤⑥-|
口⑥⑤④ |⑦⑧⑨-|
①②③口 |⑩⑪⑫-|


不确定度: 0

最終更新:2012年11月23日 02:33