夏祭り

EXTREME

Level: 8
BPM: 141-143
Notes: 509

BPM: 141.9
1
口口口口 |----|
口口口口 |----|
口口口口 |----|
口口口口 |----|
2
口口口口 |①---|
①③口口 |②---|
口口口口 |③---|
②④口口 |④---|
3
口③④口 |①---|
口口①口 |②---|
口口口口 |③---|
口口②口 |④---|
4
口口口口 |①---|
①③口口 |②---|
口口口口 |③---|
②④口口 |④---|
5
③④口口 |①---|
口口①口 |②---|
口口口口 |③---|
口口②口 |④---|
6
口口①口 |①---|
③口口口 |②---|
口口口口 |③---|
②④口口 |④---|
7
③④口口 |①---|
口口口① |②---|
口口口口 |③---|
口口②口 |④---|
8
口口①口 |①---|
口口口口 |②---|
口口口口 |③---|
②③④口 |④---|
9
口口口口 |①---|
口口口① |②---|
口口口口 |③---|
②③④口 |④---|
10
口口口口 |①---|
①③口口 |②---|
口口口口 |③---|
②④口口 |④---|
11
③④口口 |①---|
口口①口 |②---|
口口口口 |③---|
口口②口 |④---|
12
口口口口 |①---|
口①③口 |②---|
口口口口 |③---|
②④口口 |④---|
13
口口口口 |①---|
口口口① |②---|
口口口口
口口②口

口口口口
③口口④
口口口口 |③---|
口口口口 |④---|
14
①③口口 |①---|
口口口口 |②---|
口口口口 |③---|
②④口口 |④---|
15
口口①③ |①---|
口口口口 |②---|
口口口口 |③---|
口口②④ |④---|
16
①⑦⑩④ |①②③-|
⑤⑪⑧② |④⑤⑥-|
③⑨⑫⑥ |⑦⑧⑨-|
口口口口 |⑩⑪⑫-|
17
口口口口 |①②③-|
①⑦⑩④ |④⑤⑥-|
⑤⑪⑧② |⑦⑧⑨-|
③⑨⑫⑥ |⑩⑪⑫-|
18
①⑦⑩④ |①②③-|
⑤⑪⑧② |④⑤⑥-|
③⑨⑫⑥ |⑦⑧⑨-|
口口口口 |⑩⑪⑫-|
19
口口口口 |①②③-|
①口口④ |④⑤⑥-|
⑤口口②
③口口⑥

⑩口口口
⑪⑦口口
口口⑧口 |⑦⑧⑨-|
口⑨口口 |⑩-⑪-|
20
口口口② |①---|
口口口③ |②-③-|
①⑥⑥④ |④---|
口⑤⑤口 |⑤-⑥-|
21
②⑤⑤③ |①--②|
⑥①①口 |③-④-|
⑦口口口 |⑤---|
④口口④ |⑥-⑦-|
22
口口口口 |①---|
口⑥⑥② |②-③-|
口⑤⑤③ |④---|
①口口④ |⑤-⑥-|
23
④①①口 |①--②|
口口口③ |③-④-|
②口口口
口口口口

口口⑦口
⑥口⑥⑦
⑦⑥口⑥ |⑤---|
口⑦口⑤ |⑥-⑦-|
24
②口口① |①---|
口②口口 |②---|
口口②口
①口口②

口口③④
口口⑤③
③⑤口口 |③---|
④③口口 |④-⑤-|
25
口口口口 |①---|
①口口口 |----|
口口口①
口口口口

口③口口
③②口②
②口②③ |----|
口口③口 |②-③-|
26
①口口② |①---|
口口②口 |②---|
口②口口
②口口①

④③口口
③⑤口口
口口⑤③ |③---|
口口③④ |④-⑤-|
27
②口口口 |①---|
③口口① |----|
①口口口 |----|
口口口口 |②-③-|
28
口口口② |①---|
口口口③ |②-③-|
①⑥⑥④ |④---|
口⑤⑤口 |⑤-⑥-|
29
②⑤⑤③ |①--②|
⑥①①口 |③-④-|
⑦口口口 |⑤---|
④口口④ |⑥-⑦-|
30
口口口口 |①---|
口⑥⑥② |②-③-|
口⑤⑤③ |④---|
①口口④ |⑤-⑥-|
31
④①①口 |①--②|
口口口③ |③-④-|
②口口口
口口口口

口口⑦口
⑥口⑥⑦
⑦⑥口⑥ |⑤---|
口⑦口⑤ |⑥-⑦-|
32
②口口① |①---|
口②口口 |②---|
口口②口
①口口②

口口③④
口口⑤③
③⑤口口 |③---|
④③口口 |④-⑤-|
33
口口口口 |①---|
①口口口 |----|
口口口①
口口口口

口③口口
③②口②
②口②③ |----|
口口③口 |②-③-|
34
①口口② |①---|
口口②口 |②---|
口②口口
②口口①

④③口口
③⑤口口
口口⑤③ |③---|
口口③④ |④-⑤-|

BPM: 142
35
口口口口 |①---|
口口口① |----|
①口口口 |----|
口口口口 |----|
36
①②口口 |①---|
口口②① |②---|
①②口口
口口②①

④口③口
口③口口
口口③口 |③---|
口③口⑤ |④-⑤-|
37
口①口① |①---|
口②口② |②---|
②口②口
①口①口

④⑤口口
③口③口
口③口③ |③---|
口口⑤④ |④-⑤-|
38
口口①② |①---|
口口②口 |②---|
口②口口
②①口口

口③口⑤
③④⑤④
④⑤④③ |③---|
⑤口③口 |④-⑤-|
39
口②①口 |①---|
口口口口 |----|
口口口口 |②---|
口①②口 |----|
40
①②口口 |①---|
口口②① |②---|
①②口口
口口②①

④口③口
口③口口
口口③口 |③---|
口③口⑤ |④-⑤-|
41
口①口① |①---|
口②口② |②---|
②口②口
①口①口

④⑤口口
③口③口
口③口③ |③---|
口口⑤④ |④-⑤-|
42
口口①② |①---|
口口②口 |②---|
口②口口
②①口口

口③④口
③④口口
口口④③ |③---|
口④③口 |④---|
43
口口口① |①---|
口口①口 |----|
口①口口 |----|
①口口口 |----|
44
①②口口 |①---|
口口②① |②---|
①②口口
口口②①

④口③口
口③口口
口口③口 |③---|
口③口⑤ |④-⑤-|
45
口①口① |①---|
口②口② |②---|
②口②口
①口①口

④⑤口口
③口③口
口③口③ |③---|
口口⑤④ |④-⑤-|
46
口口①② |①---|
口口②口 |②---|
口②口口
②①口口

口③口⑤
③④⑤④
④⑤④③ |③---|
⑤口③口 |④-⑤-|
47
口②①口 |①---|
口口口口 |----|
口口口口 |②---|
口①②口 |----|
48
①②口口 |①---|
口口②① |②---|
①②口口
口口②①

④口③口
口③口口
口口③口 |③---|
口③口⑤ |④-⑤-|
49
口①口① |①---|
口②口② |②---|
②口②口
①口①口

④⑤口口
③口③口
口③口③ |③---|
口口⑤④ |④-⑤-|

BPM: 143
50
口口①② |①---|
口口②口 |②---|
口②口口
②①口口

口③④口
③④口口
口口④③ |③---|
口④③口 |④---|
51
①⑦⑩④ |①②③-|
⑤⑪⑧② |④⑤⑥-|
③⑨⑫⑥ |⑦⑧⑨-|
口口口口 |⑩⑪⑫-|
52
口口口口 |①②③-|
①⑦⑩④ |④⑤⑥-|
⑤⑪⑧② |⑦⑧⑨-|
③⑨⑫⑥ |⑩⑪⑫-|
53
①⑦⑩④ |①②③-|
⑤⑪⑧② |④⑤⑥-|
③⑨⑫⑥ |⑦⑧⑨-|
口口口口 |⑩⑪⑫-|
54
口口口口 |①②③-|
①⑦⑩④ |④⑤⑥-|
⑤⑪⑧② |⑦⑧⑨-|
③⑨⑫⑥ |⑩⑪⑫-|


不确定度: 0

最終更新:2012年11月23日 02:32