My SunShine

BASIC

Level: 1
BPM: 145
Notes: 138

1
口口口口 |----|
口口口口 |----|
①口口口 |①---|
口口口口 |----|
2
口口口口 |①---|
②口口口 |----|
口口口口 |②---|
口口①口 |----|
3
口口①口 |①---|
口口口口 |----|
口口口口 |②---|
口②口口 |----|
4
口口口口 |①---|
口②口口 |----|
口①口口 |②---|
口口口口 |----|
5
口①口口 |①---|
口口口口 |----|
②口口口 |②---|
口口口口 |----|
6
口口口口 |①---|
②口口口 |----|
口口口口 |②---|
口口①口 |----|
7
口口①口 |①---|
口口口口 |----|
口口口口 |②---|
口②口口 |----|
8
口口口口 |①---|
口②口口 |----|
口①口口 |②---|
口口口口 |----|
9
口①口口 |①---|
口②②口 |----|
口口口口 |②---|
口口口口 |----|
10
口口口口 |----|
口口口口 |----|
口口口口 |----|
口口口口 |----|
11
口口口口 |----|
口口口口 |----|
口①①口 |①---|
口口口口 |----|
12
口口口口 |----|
口口口口 |----|
口口口口 |----|
口口口口 |----|
13
口口口口 |----|
口①①口 |----|
口口口口 |①---|
口口口口 |----|
14
口口口口 |----|
口口口口 |----|
口口口口 |----|
口口口口 |----|
15
口口口口 |----|
口口口口 |----|
口口口口 |----|
口口口口 |----|
16
口口口口 |----|
口口口口 |----|
口口口口 |----|
口口口口 |----|
17
口口口口 |----|
①口口口 |----|
口口口口 |----|
口口口口 |①---|
18
口口口口 |①---|
口口口口 |----|
①口口② |②---|
口口口口 |----|
19
口口口口 |①---|
口口口口 |----|
口口①口 |----|
口口口② |②---|
20
口口口口 |①---|
口口口口 |----|
②口口① |②---|
口口口口 |----|
21
口口口口 |①---|
口②②口 |----|
口①口口 |②---|
口口口口 |----|
22
口①①口 |①---|
口口口口 |----|
口②③口 |--②-|
口口口口 |--③-|
23
口口口口 |----|
①口口口 |----|
口口口口 |----|
口口口口 |①---|
24
口口口④ |①---|
口①②③ |②---|
口口口口 |③---|
口口口口 |④---|
25
③②①口 |①---|
口口口口 |②---|
口④口口 |③---|
口口口口 |④---|
26
口口口口 |①---|
②口口口 |----|
口口①口 |②---|
口口口口 |----|
27
口口②口 |①---|
口口口① |----|
口口口口 |----|
口口口口 |②---|
28
口①口口 |①---|
②口口口 |----|
口口口口 |②---|
口口口口 |----|
29
口口口口 |①---|
口①②口 |----|
口口口口 |②---|
口口口口 |----|
30
口口口口 |①---|
口口口① |----|
口口口口 |--②-|
口③②口 |--③-|
31
口口口口 |----|
①口口口 |----|
口口口口 |----|
口口口口 |①---|
32
口口口口 |①---|
口①②③ |②---|
口口口④ |③---|
口口口口 |④---|
33
口口口口 |①---|
口口口口 |②---|
③②①口 |③---|
口④④口 |④---|
34
口口口口 |----|
①口口② |①---|
口口口口 |--②-|
口口口口 |----|
35
口口口口 |----|
口口口口 |①---|
口①②③ |②---|
口口口口 |③---|
36
口口口口 |----|
①口口② |①---|
口口口口 |----|
口口口口 |②---|
37
口口口口 |①---|
口口口口 |②---|
③②①口 |③---|
口口口口 |----|
38
口口口口 |①---|
口①②口 |----|
口口口口 |②---|
口口口口 |----|
39
口口口口 |①---|
口口口口 |----|
口②①口 |②---|
口口口口 |----|
40
口口口口 |①---|
口①②口 |----|
口口口口 |②---|
口口口口 |----|
41
①②③④ |①---|
口口口口 |②---|
口口口口 |③---|
口口口口 |④---|
42
口口口口 |①---|
口②①口 |----|
口口口口 |②---|
口口口口 |----|
43
口口口口 |----|
口口口口 |----|
①口口口 |①---|
口口口口 |----|
44
口口口口 |①---|
②口口口 |----|
口口口口 |②---|
口口①口 |----|
45
口口①口 |①---|
口口口口 |----|
口口口口 |②---|
口②口口 |----|
46
口口口口 |①---|
口②口口 |----|
口①口口 |②---|
口口口口 |----|
47
口①口口 |①---|
口口口口 |----|
②口口口 |②---|
口口口口 |----|
48
口口口口 |①---|
②口口口 |----|
口口口口 |②---|
口口①口 |----|
49
口口①口 |①---|
口口口口 |----|
口口口口 |②---|
口②口口 |----|
50
口口口口 |①---|
口②口口 |----|
口①口口 |②---|
口口口口 |----|
51
口①口口 |①---|
口口口口 |----|
②口口口 |②---|
口口口口 |----|
52
口口口口 |①---|
②口口口 |----|
口口口口 |②---|
口口①口 |----|
53
口口①口 |①---|
口口口口 |----|
口口口口 |②---|
口②口口 |----|
54
口口口口 |①---|
口②口口 |----|
口①口口 |②---|
口口口口 |----|
55
口①口口 |①---|
口口口口 |----|
口口口口
口口口口

口②口口
口口口口
口口口口 |----|
口口口口 |②---|
56
口口①口 |①---|
口②③口 |②---|
口④口口 |③---|
口口口口 |④---|
57
口②③口 |①---|
口④口口 |②---|
口口①口 |③---|
口口口口 |④---|
58
口口口口 |①---|
口口①口 |----|
口口口口 |②---|
口②②口 |----|
59
口口口口 |----|
口①①口 |----|
口口口口 |①---|
口口口口 |----|
60
口口口口 |----|
口口口口 |----|
口口口口 |----|
口口口口 |----|
61
口口口口 |----|
口口口口 |----|
口①①口 |①---|
口口口口 |----|
62
口口口口 |----|
口口口口 |----|
口口口口 |----|
口口口口 |----|
63
口口口口 |----|
口①①口 |----|
口口口口 |①---|
口口口口 |----|
64
口口口口 |----|
口口口口 |----|
口口口口 |----|
口口口口 |----|
65
口口口口 |----|
口口口口 |----|
口口口口 |----|
口口口口 |----|
66
口口口口 |①---|
口③③口 |--②-|
口②②口 |----|
口①①口 |③---|
67
①口口① |①---|
口口口口 |----|
口口口口 |----|
口口口口 |----|


不确定度: 0

最終更新:2012年11月23日 02:31