My SunShine

ADVANCED

Level: 4
BPM: 145
Notes: 300

1
口口口口 |----|
①②口口 |----|
口口口口 |①---|
口口口口 |②---|
2
口口口口 |①---|
口口①② |②---|
口口④③ |③---|
口口口口 |④---|
3
③④口口 |①---|
口口口口 |②---|
②①口口 |③---|
口口口口 |④---|
4
口口①② |①---|
口④口口 |②---|
口③口口 |③---|
口口口口 |④---|
5
口口口口 |①---|
③③①口 |②---|
口口②口 |③---|
口口口口 |----|
6
口口口口 |①---|
口口③③ |②---|
口口口② |③---|
口口口① |----|
7
口口口口 |①---|
口③口口 |②---|
②④口口 |③---|
①口口口 |④---|
8
口口口口 |①---|
口口④口 |②---|
口口③口 |③---|
口①②口 |④---|
9
口①②口 |①-②-|
口口口口 |----|
口口口口 |----|
口口口口 |----|
10
口口口口 |①---|
口口口口 |--②-|
①①②② |----|
口口口口 |----|
11
口口口口 |①---|
②②①① |--②-|
口口口口 |----|
口口口口 |----|
12
口口口口 |①---|
口口口口 |--②-|
①①②② |----|
口口口口 |----|
13
口口口口 |①---|
②②①① |--②-|
口口口口 |----|
口口口口 |----|
14
口口①① |①---|
②②③③ |--②-|
口口口口 |----|
口口口口 |③---|
15
口口①① |①---|
②②③③ |--②-|
口口口口 |----|
口口口口 |③---|
16
口口口口 |①---|
口口口口 |----|
①①口口 |----|
口口口口 |----|
17
口口口口 |①---|
口④口口 |----|
②口口③ |--②-|
口①①口 |③-④-|
18
口口口口 |①---|
口口①口 |②-③-|
口④⑤口 |--④-|
口②③口 |⑤---|
19
口口口口 |----|
口③口口 |----|
①口口② |--①-|
口口口口 |②-③-|
20
口②③口 |①---|
口口①口 |②-③-|
口口④⑤ |--④-|
口口口口 |--⑤-|
21
口口口口 |①---②-|
口⑥⑤口 |--③---|
口④③口 |④---⑤-|
口②①口 |--⑥---|
22
口口①口 |①---|
口口口口 |----|
③口口③ |--②-|
②口口② |--③-|
23
口口口口 |----|
口口口口 |----|
口口口口 |--①-|
口①②③ |②-③-|
24
口口口口 |--①-|
口④⑤⑥ |②-③-|
③②①口 |--④-|
口口口口 |⑤-⑥-|
25
②口①口 |--①-|
口⑤口口 |--②-|
③口口④ |--③-|
口口口口 |④-⑤-|
26
口口口口 |①---|
口口①口 |②-③-|
口④⑤口 |--④-|
口②③口 |⑤---|
27
口口口口 |----|
口③口口 |----|
①口口② |--①-|
口口口口 |②-③-|
28
口②③口 |①---|
口口①口 |②-③-|
口口口口
口口口口

口口口口
④⑤⑥口
口口口口 |--④-|
口口口口 |⑤-⑥-|
29
口口口口 |①---②-|
口⑥⑤口 |--③---|
口④③口 |④---⑤-|
口②①口 |--⑥---|
30
口口①口 |①---|
口口口口 |----|
③口口③ |--②-|
②口口② |--③-|
31
口口口口 |----|
口口口口 |----|
口口口口 |--①-|
口①②③ |②-③-|
32
口口口口 |--①-|
口④⑤⑥ |②-③-|
③②①口 |--④-|
口口口口 |⑤-⑥-|
33
③②①口 |--①-|
口口口口 |②-③-|
口④④口 |--④-|
口口口口 |----|
34
口口口口 |----|
①口口② |①---|
③口口口 |--②-|
口口口口 |--③-|
35
口口口口 |--①-|
口口口口 |②-③-|
口⑤⑤口 |④---|
①②③④ |⑤---|
36
①口口② |----|
口③④口 |①-②-|
⑤口口口 |--③-|
口口口口 |④-⑤-|
37
口口口口 |①-②-|
口口口口 |③-④-|
口①②③ |⑤---|
口④⑤口 |----|
38
①口口口 |①---|
口②③口 |②-③-|
口口口④ |----|
口口口口 |④---|
39
口④④口 |①---|
口③③口 |②---|
口②②口 |③---|
口①①口 |④---|
40
④口口口 |①---|
①口口① |--②-|
口②③口 |③---|
口口口口 |--④-|
41
口②②① |①---|
口口③③ |②---|
④④口口 |③---|
口口口口 |④---|
42
口口口口 |①---|
口②③口 |--②-|
口口口口 |③---|
口口①① |----|
43
口口口口 |①---|
③④口口 |②---|
口口口口 |③---|
口①②口 |④---|
44
口口口口 |①---|
口口①② |②---|
口口④③ |③---|
口口口口 |④---|
45
③④口口 |①---|
口口口口 |②---|
②①口口 |③---|
口口口口 |④---|
46
口口①② |①---|
口④口口 |②---|
口③口口 |③---|
口口口口 |④---|
47
口口口口 |①---|
③③①口 |②---|
口口②口 |③---|
口口口口 |----|
48
口口口口 |①---|
口口③③ |②---|
口口口② |③---|
口口口① |----|
49
口口口口 |①---|
口③口口 |②---|
②④口口 |③---|
①口口口 |④---|
50
口口口口 |①---|
口口④口 |②---|
口口③口 |③---|
口①②口 |④---|
51
口①①口 |①---|
②③口口 |----|
口口口口 |②---|
口口口口 |③---|
52
口口口口 |①---|
口口①② |②---|
口口④③ |③---|
口口口口 |④---|
53
③④口口 |①---|
口口口口 |②---|
②①口口 |③---|
口口口口 |④---|
54
口口①② |①---|
口④口口 |②---|
口③口口 |③---|
口口口口 |④---|
55
口口口口 |①---|
口口①口 |②---|
口口②口 |----|
③③口口 |③---|
56
④④③③ |①---|
②②口口 |②---|
口口①① |③---|
口口口口 |④---|
57
口口口口 |①---|
口口①① |②---|
②②口口
口口口口

口口口口
口④⑤口
口口口口 |③---|
口口③③ |④-⑤-|
58
口口口口 |①---|
口口口① |--②-|
口②③口 |③---|
口口口口 |----|
59
口口口口 |----|
口口口口 |----|
口口口口 |----|
口口口口 |----|
60
口口口口 |①---|
口口口口 |--②-|
①①②② |----|
口口口口 |----|
61
口口口口 |①---|
②②①① |--②-|
口口口口 |----|
口口口口 |----|
62
口口口口 |①---|
口口口口 |--②-|
①①②② |----|
口口口口 |----|
63
口口口口 |①---|
②②①① |--②-|
口口口口 |----|
口口口口 |----|
64
口口①① |①---|
②②③③ |--②-|
口口口口 |----|
口口口口 |③---|
65
口口①① |①---|
②②③③ |--②-|
口口口口 |----|
口口口口 |③---|
66
口口口口 |①-②-|
⑦口⑧口 |③-④-|
④口⑤⑥ |⑤-⑥-|
①口②③ |⑦-⑧-|
67
口①①口 |①---|
口口口口 |----|
口口口口 |----|
口口口口 |----|


不确定度: 0

最終更新:2012年11月23日 02:31