アストライアの双皿
ZODIACSYNDICATE

ADVANCED

Level: 9
BPM: 173
Notes: 776

1
口口②口 |----|
口口口② |----|
口口口① |--①-|
口口①口 |--②-|
2
口①口④ |--①-|
①口④口 |--②-|
②口③口 |--③-|
口②口③ |--④-|
3
①口口口 |--①-|
口①口④ |--②-|
口②口④ |--③-|
②③③口 |--④-|
4
④①①④ |--①-|
②口口口 |--②-|
②口口口 |--③-|
口③③口 |--④-|
5
口③③口 |--①-|
口①①口 |--②-|
口口口口 |----|
②口口② |--③-|
6
口口口口 |①-②-|
①①④口 |③-④-|
口口口②
③③口口

口口口口
⑦⑦口⑥
⑤⑤口口 |⑤-⑥-|
口口口⑧ |⑦-⑧-|
7
⑦⑦口⑧ |①-②-|
⑤⑤口④ |③-④-|
③③②⑥ |⑤-⑥-|
①①口口 |⑦-⑧-|
8
⑨⑦⑧⑩ |①-②-|
⑤⑤⑥⑥ |③-④-|
③③④④ |⑤-⑥-|
①①②② |⑦⑧⑨⑩|
9
⑩⑪⑫⑬ |①--②③④|
⑥⑦⑧⑨ |⑤--⑥⑦⑧|
②③④⑤ |⑨--⑩⑪⑫|
口①口口 |⑬---|
10
口口口口 |①-②-|
口口口口 |③-④-|
口③④口
口①②口
11
①口口④ |①-②-|
口①④口 |③---|
②口口⑤ |④-⑤-|
③口口⑥ |⑥---|
12
口①④口 |①-②-|
①口口④ |③---|
口②⑤口 |④-⑤-|
口③⑥口 |⑥---|
13
①口口④ |①-②-|
口①④口 |③---|
②口口⑤ |④-⑤-|
③口口⑥ |⑥---|
14
口①④口 |①-②-|
①口口④ |③---|
口②⑤口 |④-⑤-|
口③⑥口 |⑥---|
15
口③口口 |①-②-|
口⑦④口 |③-④-|
①⑤⑧① |⑤-⑥-|
②口⑥② |⑦-⑧-|
16
口口⑤口 |①-②-|
①⑥③① |③-④-|
②④⑦② |⑤-⑥-|
口⑧口口 |⑦-⑧-|
17
①③口① |①-②-|
②口④② |③-④-|
⑦⑤口口 |⑤-⑥-|
口口⑥⑧ |⑦-⑧-|
18
③①①④ |①-②-|
口②②口 |③-④-|
口⑧⑨⑩ |⑤-⑥-⑦-|
口⑤⑥⑦ |⑧-⑨-⑩-|
19
②口口② |①---|
①②②① |----|
口口口口 |②---|
口口口口 |----|
20
口口口口 |①---|
②口口② |----|
②①①② |②---|
①口口① |----|
21
①口口② |①---|
口①②口 |----|
口②①口 |②---|
②口口① |----|
22
口口口口 |①---|
①口口① |----|
口口口口 |②---|
口②②口 |----|
23
口口口口 |①---|
口①①① |----|
①①①口 |②---|
②②②② |----|
24
①口口④ |①-②-|
口①④口 |③---|
②口口⑤ |④-⑤-|
③口口⑥ |⑥---|
25
口①④口 |①-②-|
①口口④ |③---|
口②⑤口 |④-⑤-|
口③⑥口 |⑥---|
26
①口口④ |①-②-|
口①④口 |③---|
②口口⑤ |④-⑤-|
③口口⑥ |⑥---|
27
口①④口 |①-②-|
①口口④ |③---|
口②⑤口 |④-⑤-|
口③⑥口 |⑥---|
28
口④口口 |①---|
⑥口口⑤ |--②③|
口口③⑦ |④-⑤-|
①②口① |⑥-⑦-|
29
口口口口 |①---|
口①口口 |--②③|
口③口口
口口②口

口口④口
⑤⑦口口
口口口⑥ |④-⑤-|
口口口口 |⑥-⑦-|
30
口③②④ |①---|
口口口① |--②③|
口口口口 |④---|
口⑤⑥口 |--⑤⑥|
31
口口口口 |①---|
口③口口 |--②③|
口口②口
①口口口

口口口④
⑤口口口
口口口⑥ |④-⑤-|
⑦口口口 |⑥-⑦-|
32
口③②口 |①---|
口口口口 |--②③|
口口口口
口①①口

口口口④
口口口口
口口口口 |④---|
口⑤⑥口 |--⑤⑥|
33
口④口口 |①---|
口口③⑤ |--②③|
⑥②口⑦ |④-⑤-|
①口口口 |⑥-⑦-|
34
①③②④ |①---|
口口口口 |--②③|
口口口口 |④---|
口⑤⑥口 |--⑤⑥|
35
口口口口 |①-②③|
口④⑤口 |④⑤--|
口②③口
①口口口

⑨⑧⑦⑥
口口口口
口口口口 |⑥⑦⑧⑨|
⑬⑫⑪⑩ |⑩⑪⑫⑬|
36
口口口口 |①②-③|
⑤⑦④② |④-⑤⑥|
①③⑧⑥ |-⑦⑧-|
⑨⑩⑪⑫ |⑨⑩⑪⑫|
37
③口⑥口 |①②-③|
口⑤②④ |④-⑤⑥|
口①口口
口口口口

口口口⑧
⑦口口口
⑨⑩⑪⑫ |-⑦⑧-|
口口口口 |⑨⑩⑪⑫|
38
③①⑥⑧ |①②-③|
⑦⑤②④ |④-⑤⑥|
口口口口 |-⑦⑧-|
⑨⑩⑪⑫ |⑨⑩⑪⑫|
39
口口④⑧ |①②-③|
⑦③②口 |④-⑤⑥|
⑤①口⑥ |-⑦⑧-|
⑨⑩⑪⑫ |⑨⑩⑪⑫|
40
①①口③ |①-②-|
③口②② |--③-|
口口口口
口口口口

口⑥⑥口
口口口口
④口口④ |-④--|
口⑤⑤口 |⑤-⑥-|
41
①口口口 |①--②|
口③③① |--③-|
⑥⑥⑤⑤ |-④--|
②④④② |⑤-⑥-|
42
①③②① |①-②③|
⑦⑥⑤④ |④⑤⑥⑦|
⑪⑩⑨⑧ |⑧⑨⑩⑪|
⑮⑭⑬⑫ |⑫⑬⑭⑮|
43
①①②② |①--②|
③③④④ |--③-|
口口口口 |-④--|
⑤⑥⑦⑧ |⑤⑥⑦⑧|
44
口口②口 |①---|
口口口口 |--②-|
③口口① |③---|
口口口口 |----|
45
口口口① |----|
口口①② |①---|
口口②③ |②---|
口口③口 |③---|
46
①口口口 |----|
②①口口 |①---|
③②口口 |②---|
口③口口 |③---|
47
口口①口 |----|
口口②① |①---|
口口③② |②---|
口口口③ |③---|
48
口①口口 |----|
①②口口 |①---|
②③口口 |②---|
③口口口 |③---|
49
口口口③ |----|
口口③① |①---|
口口①② |②---|
口口②口 |③---|
50
③口口口 |----|
①③口口 |①---|
②①口口 |②---|
口②口口 |③---|
51
口①①口 |①--②|
③⑥⑥③ |--③-|
口⑤⑤口 |-④--|
②④④② |⑤-⑥-|
52
①②口① |①---|
口⑥⑤口 |--②③|
④口口③ |④---|
口口口口 |⑤-⑥-|
53
③口口③ |①---|
①④④① |②---|
口口口口 |③---|
②口口② |④---|
54
②口口② |①---|
口口口口 |--②-|
②③③② |----|
口①①口 |③---|
55
口①④口 |①②③-|
⑤⑦⑩② |④⑤⑥-|
口⑪⑧口 |⑦⑧⑨-|
③⑨⑫⑥ |⑩⑪⑫-|
56
口④口口 |①---|
口口口③ |--②③|
①口口① |④---|
口②口口 |----|
57
⑤口④⑥ |①-②-③-|
口③口口 |④-⑤-⑥-|
口口②口
①口口口

口⑦口口
⑪口⑧口
口⑨⑫口 |⑦-⑧-⑨-|
口口⑩口 |⑩-⑪-⑫-|
58
口口③② |①---|
口口口口 |----|
口口口口 |②-③-|
口①口口 |----|
59
口口口口 |①-②-|
口口口口 |----|
口口④③ |③-④-|
①②口口 |----|
60
口口口口 |①-②-|
口口④③ |----|
口口口口 |③-④-|
①②口口 |----|
61
口口口口 |①-②-|
口口口口 |----|
口口④③ |③-④-|
①②口口 |----|
62
口口②② |①---|
口口④④ |②---|
③③口口 |③---|
①①口口 |④---|
63
③③口口 |①---|
①①口口 |②---|
口口②② |③---|
口口④④ |④---|
64
口口②② |①---|
口口④④ |②---|
③③口口 |③---|
①①口口 |④---|
65
③③口口 |①---|
①①口口 |②---|
口口②② |③---|
口口④④ |④---|
66
⑦口口② |①-②-|
⑤口口④ |③-④-|
③口口⑥ |⑤-⑥-|
①口口⑧ |⑦-⑧-|
67
⑨⑦⑧⑩ |①②③④|
⑪⑤⑥⑫ |⑤⑥⑦⑧|
⑬③④⑭ |⑨⑩⑪⑫|
⑮①②⑯ |⑬⑭⑮⑯|
68
口口口口 |①---|
口口口口 |----|
口①①口 |----|
口口口口 |----|
69
①口口② |①②-③|
口口口口 |④-⑤⑥|
⑤口口⑥
③口口④

⑩口口⑩
⑦口口⑧
口⑦⑧口 |-⑦⑧-|
口⑨⑨口 |⑨-⑩-|
70
口④③口 |①-②-|
口⑤②口 |③-④-|
⑥口口⑧ |⑤-⑥-|
①口⑦口 |⑦-⑧-|
71
④口口③ |①-②-|
口口⑤② |③-④-|
⑧⑥口口 |⑤-⑥-|
①口⑦口 |⑦-⑧-|
72
③①①③ |①-②-|
口口口口 |③-④-|
口口口口
②口口④

口⑦⑦口
口⑤⑤口
口口口口 |⑤-⑥-|
口⑥⑧口 |⑦-⑧-|
73
⑦⑧⑩⑨ |①②③④|
口⑤⑥口 |-⑤⑥-|
①②③④ |⑦⑧-⑨|
口⑪⑪口 |⑩-⑪-|
74
③口口口 |①-②-|
口口④口 |③-④-|
⑧口⑤② |⑤-⑥-|
①⑦口⑥ |⑦-⑧-|
75
口⑤⑧③ |①-②-|
口口口② |③-④-|
⑦④⑥口 |⑤-⑥-|
①口口口 |⑦-⑧-|
76
①口口① |①-②-|
③③③③ |③-④-|
口口口口
④②②④

⑦⑦⑦⑦
口口口口
⑤⑥⑥⑤ |⑤-⑥-|
口⑧⑧口 |⑦-⑧-|
77
口口口口 |①②③④|
④③②① |-⑤⑥-|
口口口口
⑤口口⑥

⑦⑧⑨⑩
口口口⑮
⑪⑫⑬⑭ |⑦⑧⑨⑩⑪⑫|
口口口口 |⑬⑭⑮---|
78
⑥口口⑥ |①②③④|
⑧③④⑧ |--⑤-|
口⑦⑦口 |-⑥--|
⑤①②⑤ |⑦-⑧-|
79
口①①口 |①---|
口口口口 |----|
口口口口 |----|
口口口口 |----|
80
口⑤⑤口 |①②③④|
⑥⑦⑦⑥ |--⑤-|
①②③④ |--⑥-|
⑧口口⑧ |⑦-⑧-|
81
②口口口 |①--②|
口④口口 |--③-|
口口口③ |④---|
口①①口 |----|
82
口①①口 |①---|
口口口口 |----|
口口口口 |②---|
口②②口 |----|
83
①口口② |①②-③|
③⑥口⑦ |-④⑤-|
④⑧口⑤ |⑥⑦-⑧|
口⑨口⑩ |-⑨⑩-|
84
①口口② |①②-③|
③⑥口⑦ |-④⑤-|
④⑧口⑤ |⑥⑦-⑧|
口⑨⑩口 |-⑨-⑩|
85
①①口② |①②-③|
③⑥⑥⑦ |-④⑤-|
④⑧口⑤ |⑥⑦-⑧|
口⑨口⑩ |-⑨⑩-|
86
①①口② |①②-③|
③⑥⑥⑦ |-④⑤-|
④⑧口⑤ |⑥⑦-⑧|
口⑨口⑩ |-⑨⑩-|
87
①①①① |①---|
口口口口 |----|
口口口口 |----|
口口口口 |----|
88
①③③② |①②-③|
①④④② |-④-⑤|
口⑤⑤口
口口口口

⑨口口⑨
口口口口
⑧口口⑧ |-⑥-⑦|
⑦⑥⑥⑦ |⑧-⑨-|


不确定度: 0

タグ:

+ タグ編集
  • タグ:

このサイトはreCAPTCHAによって保護されており、Googleの プライバシーポリシー利用規約 が適用されます。

最終更新:2012年12月18日 01:57