My SunShine

EXTREME

Level: 6
BPM: 145
Notes: 420

1
口口口口 |----|
口口口口 |----|
口③④口 |①-②-|
口①②口 |③-④-|
2
口④⑤口 |--①-|
①②③① |----|
口口口口 |②-③-|
口口口口 |④-⑤-|
3
口②口口 |--①-|
②②②口 |----|
①②⑤① |②-③-|
④口口③ |④-⑤-|
4
②③④⑤ |--①-|
口口口⑥ |②-③-|
①⑦⑦口 |④-⑤-|
口口口口 |⑥-⑦-|
5
口口口口 |--①-|
口①①口 |----|
口④⑤口 |②-③-|
口②③口 |④-⑤-|
6
口④⑤口 |--①-|
①②③① |----|
①口口① |②-③-|
口口口口 |④-⑤-|
7
口口口口 |--①-|
①口口① |----|
①④⑤① |②-③-|
②口口③ |④-⑤-|
8
口⑤④口 |--①-|
口③⑥口 |②-③-|
①⑦口② |④-⑤-|
口口口口 |⑥-⑦-|
9
口⑤⑤口 |①-②-|
口③④口 |----|
②口口① |③-④-|
口②①口 |--⑤-|
10
口口口口 |①---|
口口口口 |--②-|
口口口口 |----|
①②口口 |----|
11
口⑤⑤④ |①---|
③口④口 |--②-|
口③口口 |③-④-|
口口②① |--⑤-|
12
口口口口 |①---|
口口口口 |--②-|
口②②口 |----|
①口口口 |----|
13
口⑤⑤④ |①---|
③口④口 |--②-|
口③口口 |③-④-|
口口②① |--⑤-|
14
口口口口 |①---|
口口口口 |--②-|
口②①口 |----|
口口③口 |③---|
15
口口口口 |①---|
口口口口 |--②-|
口②①口 |----|
口口③口 |③---|
16
口口口口 |①---|
口口口口 |----|
口口口口 |----|
口①口口 |----|
17
口口口口 |①---|
口①①口 |----|
口①①口
口口口口

口口口③
口④口口
②口口口 |--②-|
口口口口 |③-④-|
18
口口口口 |①---|
口口口口 |②-③-|
口口①口
口②③口

口口口口
口口口口
口④⑤口 |--④-|
口口口口 |⑤---|
19
口口口口 |----|
口③口口 |----|
①口口口 |--①-|
口口口② |②-③-|
20
口②③口 |①---|
⑤口口① |②-③-|
口口④⑥ |--④-|
口口口口 |⑤-⑥-|
21
④④⑤⑤ |①---②-|
⑥⑥③③ |--③---|
②②口口 |④---⑤-|
口口①① |--⑥---|
22
口口口口 |①---|
口口口口 |----|
口口①①
口口口口

口口口口
口口口口
③口口③ |--②-|
②口口② |--③-|
23
口口口口 |----|
口口口口 |----|
口口②口 |--①-|
口①口③ |②-③-|
24
口口⑤口 |--①-|
③④①⑥ |②-③-|
口②口口 |--④-|
口口口口 |⑤-⑥-|
25
④口口⑤ |①-②-|
口⑥口口 |--③-|
口口①口 |--④-|
③口②口 |⑤-⑥-|
26
口口口口 |①---|
口口口口 |②-③-|
口口①口
口②③口

口口口口
口口口口
口④⑤口 |--④-|
口口口口 |⑤---|
27
口口口口 |----|
口③口口 |----|
①口口口 |--①-|
口口口② |②-③-|
28
口②③口 |①---|
口口口口 |②-③-|
口口①口
口口口口

口口口口
④⑤口口
口口⑥口 |--④-|
口口口口 |⑤-⑥-|
29
④④⑤⑤ |①---②-|
⑥⑥③③ |--③---|
②②口口 |④---⑤-|
口口①① |--⑥---|
30
口口口口 |①---|
口口口口 |----|
口口①①
口口口口

口口口口
口口口口
③口口③ |--②-|
②口口② |--③-|
31
口口口口 |----|
口口口口 |----|
口口②口 |--①-|
口①口③ |②-③-|
32
口口⑤口 |--①-|
③④①⑥ |②-③-|
口②口口 |--④-|
口口口口 |⑤-⑥-|
33
口口口口 |--①-|
③口口口 |②-③-|
口④④① |--④-|
口②口口 |----|
34
①口③口 |----|
①⑤③口 |①-②-|
口②⑤④ |--③-|
口②口④ |④-⑤-|
35
口口口口 |--①-|
⑤口口⑤ |②-③-|
口⑤⑤口 |④---|
①②③④ |⑤---|
36
①口口② |----|
口③④口 |①-②-|
口口口口 |--③-|
⑤口口口 |④-⑤-|
37
口口口口 |①-②-|
口口口口 |③-④-|
口④⑤口 |⑤---|
口①②③ |----|
38
口口口口 |①---|
口②③口 |②-③-|
口④④口 |----|
口①口口 |④---|
39
③口口④ |①---|
①口口① |②---|
口口口口 |③---|
②口口② |④---|
40
④口口口 |①---|
口口口口 |②---|
①口口③ |③---|
口②②口 |--④-|
41
口②口① |①---|
口②口③ |②---|
④口口③ |③---|
④口口口 |④---|
42
口口口口 |①---|
口②③口 |--②-|
口口①口 |③---|
口口①口 |----|
43
②口口② |①---|
口口口口 |②---|
①⑤⑥① |③-④-|
口③④口 |⑤-⑥-|
44
口④⑤口 |--①-|
①②③① |----|
口口口口 |②-③-|
口口口口 |④-⑤-|
45
口②口口 |--①-|
②②②口 |----|
①②⑤① |②-③-|
④口口③ |④-⑤-|
46
②③④⑤ |--①-|
口口口⑥ |②-③-|
①⑦⑦口 |④-⑤-|
口口口口 |⑥-⑦-|
47
口口口口 |--①-|
口①①口 |----|
口④⑤口 |②-③-|
口②③口 |④-⑤-|
48
口④⑤口 |--①-|
①②③① |----|
①口口① |②-③-|
口口口口 |④-⑤-|
49
口口口口 |--①-|
①口口① |----|
①④⑤① |②-③-|
②口口③ |④-⑤-|
50
口⑤④口 |--①-|
口③⑥口 |②-③-|
①⑦口② |④-⑤-|
口口口口 |⑥-⑦-|
51
口口口口 |----|
口口口口 |----|
口③④口 |①-②-|
口①②口 |③-④-|
52
口④⑤口 |--①-|
①②③① |----|
口口口口 |②-③-|
口口口口 |④-⑤-|
53
口口口口 |--①-|
口口口口 |----|
①④⑤① |②-③-|
②口口③ |④-⑤-|
54
②③④⑤ |--①-|
①⑥口⑥ |②-③-|
⑦口⑥口 |④-⑤-|
口⑥口⑥ |⑥-⑦-|
55
口口口口 |--①-|
①口口口 |----|
口口口口 |----|
②②②② |②---|
56
③③③③ |①---|
②②②② |②---|
①①①① |③---|
④④④④ |④---|
57
口口口口 |①---|
②②②② |②---|
①①①①
口口口口

③③③③
口口口口
④口口口 |③---|
口⑤口口 |④-⑤-|
58
口口口口 |①---|
口②③口 |--②-|
口口①口 |③---|
口口口口 |----|
59
口③③② |----|
①口②口 |----|
口①口口 |①-②-|
口口口口 |--③-|
60
口口口口 |①---|
口口口口 |--②-|
口口口口 |----|
①②口口 |----|
61
口⑤⑤④ |①---|
③口④口 |--②-|
口③口口 |③-④-|
口口②① |--⑤-|
62
口口口口 |①---|
口口口口 |--②-|
口口口口 |----|
①②口口 |----|
63
口⑤⑤④ |①---|
③口④口 |--②-|
口③口口 |③-④-|
口口②① |--⑤-|
64
口口口口 |①---|
口口口口 |--②-|
口②①口 |----|
口口③口 |③---|
65
口口口口 |①---|
口口口口 |--②-|
口②①口 |----|
口③口口 |③---|
66
⑧⑨口⑦ |①-②-|
⑤⑥⑦④ |③-④-|
②③④① |⑤-⑥-|
口口①口 |⑦-⑧⑨|
67
口口口口 |①---|
口口口口 |----|
口口口① |----|
口口①口 |----|


不确定度: 0

最終更新:2012年11月23日 02:31