マスタッシュ
木村カエラ

BASIC

Level: 3
BPM: 152
Notes: 251

1
口口口口 |----|
口口口口 |----|
口口口口 |----|
口口口口 |----|
2
口口口口 |①---|
口口口口 |----|
口②口口 |②---|
口①口口 |----|
3
口口口口 |①---|
口①②口 |----|
口口③口 |②---|
口口口口 |③---|
4
口口口口 |①---|
口口口口 |----|
口②口口 |②---|
口①口口 |----|
5
口口口口 |①---|
口①②口 |----|
口口③口 |②---|
口口口口 |③---|
6
口口口口 |①---|
口口口口 |----|
口口口② |②---|
口口口① |----|
7
口口口① |①---|
口口口② |②---|
口口口③ |③---|
口口口④ |④---|
8
口口口口 |①---|
口口口口 |----|
口口②口 |②---|
口口①口 |----|
9
口口①口 |①---|
口口②口 |②---|
口口③口 |③---|
口口④口 |④---|
10
口口口口 |①---|
口口口口 |----|
口②口口 |②---|
口①口口 |----|
11
口①口口 |①---|
口②口口 |②---|
口③口口 |③---|
口④口口 |④---|
12
口口口口 |①---|
口口口口 |----|
②口口口 |②---|
①口口口 |----|
13
①口口口 |①---|
②口口口 |②---|
③口口口 |③---|
④口口口 |④---|
14
①②口口 |①---|
口口口口 |----|
口口口口 |②---|
口口口口 |----|
15
④③②① |①---|
口口口口 |②---|
口口口口 |③---|
口口口口 |④---|
16
口口口口 |①---|
①②口口 |----|
口口口口 |②---|
口口口口 |----|
17
口口口口 |①---|
④③②① |②---|
口口口口 |③---|
口口口口 |④---|
18
口口口口 |①---|
口口口口 |----|
①②口口 |②---|
口口口口 |----|
19
口口口口 |①---|
口口口口 |②---|
④③②① |③---|
口口口口 |④---|
20
口口口口 |①---|
口口口口 |----|
口口口口 |②---|
①口口② |----|
21
口口口口 |①---|
口①口口 |②---|
口②口口 |③---|
口③④口 |④---|
22
口④③口 |①---|
口口②口 |②---|
口口①口 |③---|
口口口口 |④---|
23
①口口口 |①---|
②口口口 |②---|
③口口口 |③---|
④口口口 |④---|
24
口口口口 |①---|
口口口口 |②---|
口口③③ |③---|
口①②口 |----|
25
口口口口 |①---|
口口口口 |----|
②②口口 |②---|
①①口口 |----|
26
口口口口 |①---|
①①口口 |----|
口口口口
口口口口

口口口口
②②口口
口口口口 |----|
口口口口 |②---|
27
口口①① |①---|
口口②② |----|
口口口口 |②---|
口口口口 |----|
28
口口口口 |①---|
口口口口 |----|
口口①①
口口口口

口口口口
口口口口
口口②② |----|
口口口口 |②---|
29
口①①口 |①---|
口②②口 |----|
口口口口 |②---|
口口口口 |----|
30
口口口口 |①---|
口口口口 |----|
口①①口 |----|
口②②口 |②---|
31
口口口口 |①---|
口口口口 |----|
②口口② |②---|
①口口① |----|
32
②口口② |①---|
①口口① |----|
口口口口 |②---|
口口口口 |----|
33
口口口口 |①---|
口口口口 |----|
②②口口 |②---|
①①口口 |----|
34
口口口口 |①---|
①①口口 |----|
口口口口
口口口口

口口口口
②②口口
口口口口 |----|
口口口口 |②---|
35
口口①① |①---|
口口②③ |②---|
口口④口 |③---|
口口口口 |④---|
36
口口口口 |①---|
口口口口 |----|
口口口①
口口口口

口口口口
口口口口
口口②② |----|
口口口口 |②---|
37
口①①口 |①---|
口②②口 |----|
口口口口 |②---|
口口口口 |----|
38
口口口口 |①---|
口口口口 |----|
口①①口 |----|
口②②口 |②---|
39
口口口口 |①---|
口口口口 |----|
②口口② |②---|
①口口① |----|
40
②口口② |①---|
①口口① |----|
口口口口 |②---|
口口口口 |----|
41
口口口口 |①---|
①②口口 |----|
口口口口 |----|
口口口口 |②---|
42
口口口口 |----|
口口①口 |----|
口口口口 |①---|
口口口口 |----|
43
口口口口 |----|
口口口① |①---|
口口口口 |----|
口口口口 |----|
44
口口口口 |①---|
口口口口 |②---|
口口口口 |③---|
④③②① |④---|
45
口口口口 |①---|
口口口口 |②---|
①②③④ |③---|
口口口口 |④---|
46
口口口口 |①---|
④③②① |②---|
口口口口 |③---|
口口口口 |④---|
47
①②③④ |①---|
口口口口 |②---|
口口口口 |③---|
口口口口 |④---|
48
口口口口 |----|
口①口口 |----|
口口口口 |①---|
口口口口 |----|
49
口口口口 |①---|
口②①口 |----|
口③口口 |②---|
口口口口 |③---|
50
口口口口 |①---|
口口④口 |②---|
口口③口 |③---|
口①②口 |④---|
51
③②①口 |①---|
④口口口 |②---|
口口口口 |③---|
口口口口 |④---|
52
口口口口 |①---|
口口口口 |②---|
①口口口 |③---|
②③④口 |④---|
53
口口口口 |①---|
口②口口 |----|
口③口口 |②---|
口口口① |③---|
54
口口口口 |①---|
口口④口 |②---|
口口③口 |③---|
口①②口 |④---|
55
③②①口 |①---|
④口口口 |②---|
口口口口 |③---|
口口口口 |④---|
56
口口口口 |①---|
口口口口 |②---|
①口口口 |③---|
②③④口 |④---|
57
口口口口 |①---|
口口口口 |----|
口口①① |----|
口口口口 |----|
58
口口口口 |①---|
口口口口 |----|
②②口口 |②---|
①①口口 |----|
59
口口口口 |①---|
①①口口 |----|
口口口口
口口口口

口口口口
②②口口
口口口口 |----|
口口口口 |②---|
60
口口①① |①---|
口口②② |----|
口口口口 |②---|
口口口口 |----|
61
口口口口 |①---|
口口口口 |----|
口口①①
口口口口

口口口口
口口口口
口口②② |----|
口口口口 |②---|
62
口①①口 |①---|
口②②口 |----|
口口口口 |②---|
口口口口 |----|
63
口口口口 |①---|
口口口口 |----|
口①①口 |----|
口②②口 |②---|
64
口口口口 |①---|
口口口口 |----|
②口口② |②---|
①口口① |----|
65
②口口② |①---|
①口口① |----|
口口口口 |②---|
口口口口 |----|
66
口口口口 |①---|
口口口口 |----|
②②口口 |②---|
①①口口 |----|
67
口口口口 |①---|
①①口口 |----|
口口口口
口口口口

口口口口
②②口口
口口口口 |----|
口口口口 |②---|
68
口口①① |①---|
口口②③ |②---|
口口④口 |③---|
口口口口 |④---|
69
口口口口 |①---|
口口口口 |----|
口口口①
口口口口

口口口口
口口口口
口口②② |----|
口口口口 |②---|
70
口①①口 |①---|
口②②口 |----|
口口口口 |②---|
口口口口 |----|
71
口口口口 |①---|
口口口口 |----|
口①①口 |----|
口②②口 |②---|
72
口口口口 |①---|
口口口口 |----|
②口口② |②---|
①口口① |----|
73
②口口② |①---|
①口口① |----|
口口口口 |②---|
口口口口 |----|


不确定度: 0

最終更新:2012年11月23日 02:30