マスタッシュ
木村カエラ

ADVANCED

Level: 6
BPM: 152
Notes: 422

1
口口口口 |----|
口口口口 |----|
口口口口 |----|
口口口口 |----|
2
①②③④ |①-②-|
口口口口 |----|
口口口口 |③-④-|
口口口口 |----|
3
口口口口 |①-②-|
①②口口 |----|
口口④④ |③---|
口口③③ |④---|
4
口口口口 |①-②-|
口口口口 |----|
①②③④ |③-④-|
口口口口 |----|
5
口口④④ |①-②-|
口口③③ |----|
口口口口 |③---|
①②口口 |④---|
6
口口口口 |--①-|
口口口口 |②---|
①②④③ |③-④-|
口口口口 |----|
7
口⑤⑤口 |①-②-|
①②③④ |③-④-|
口口口口 |--⑤-|
口口口口 |----|
8
口口口口 |--①-|
口①②口 |②-③-|
口口③口
口口口口

口口口口
口⑦口口
口⑥口口 |④-⑤-|
口⑤④口 |⑥-⑦-|
9
①口口① |①---|
口④⑤口 |②-③-|
③口口③ |--④-|
②口口② |⑤---|
10
①②口口 |--①-|
口口口口 |②---|
⑤口④口 |③---|
口口③口 |④-⑤-|
11
④⑤口口 |①---|
口口②③ |②-③-|
口①口口 |--④-|
口口口口 |⑤---|
12
口③①④ |--①-|
口②口② |②---|
口④①③ |③---|
口口口口 |④---|
13
口⑤⑤口 |①-②-|
口④④口 |③-④-|
口口口口 |--⑤-|
①②③口 |----|
14
口口口口 |--①-|
口口口口 |②---|
①②④③ |③-④-|
口口口口 |----|
15
口⑤⑤口 |①-②-|
①②③④ |③-④-|
口口口口 |--⑤-|
口口口口 |----|
16
口口口口 |--①-|
口①②口 |②-③-|
口口③口
口口口口

口口口口
口⑦口口
口⑥口口 |④-⑤-|
口⑤④口 |⑥-⑦-|
17
①口口① |①---|
口④⑤口 |②-③-|
③口口③ |--④-|
②口口② |⑤---|
18
①②口口 |--①-|
口口④口 |②---|
⑤口口口 |③-④-|
口口③口 |--⑤-|
19
⑤⑥口④ |①-②-|
口口口口 |③-④-|
口①②③ |--⑤-|
口口口口 |⑥---|
20
口口口口 |--①-|
口①②口 |②---|
③口口④ |③---|
④口口③ |④---|
21
口①②口 |①-②-|
口③④口 |③-④-|
⑤口口⑤ |--⑤-|
口⑥口口 |--⑥-|
22
②口口② |①-②-|
③口口③ |--③-|
④口口④ |--④-|
口口①口 |----|
23
口口口口 |①---|
⑤口口口 |②-③-|
口③④口 |--④-|
①口口② |--⑤-|
24
口①③口 |①-②-|
口口口② |③-④-|
④⑤⑥口 |⑤-⑥-|
口口口口 |----|
25
口口口口 |①---|
①口③④ |----|
④③口② |②---|
口口口口 |③-④-|
26
口口口口 |--①-|
口①③④ |----|
口口①② |--②-|
口口口口 |③-④-|
27
②口口口 |①---|
③口口口 |----|
口④①口 |②---|
口口口口 |③-④-|
28
②④口③ |--①-|
口口口口 |----|
口口口口 |--②-|
口①口口 |③-④-|
29
口口①口 |①---|
②③③② |②---|
④⑤口口 |③---|
口口⑤④ |④-⑤-|
30
④②③口 |--①-|
口口口口 |----|
口口①口 |--②-|
口①口口 |③-④-|
31
口口口① |①---|
③④⑤⑥ |②---|
⑥⑤④③ |③-④-|
口②②口 |⑤-⑥-|
32
口①①口 |--①-|
口口口口 |----|
口口口口 |----|
口口口口 |----|
33
口口口口 |①---|
①口③④ |----|
④③口② |②---|
口口口口 |③-④-|
34
②③④口 |--①-|
口①口口 |----|
口口①口 |--②-|
口口口口 |③-④-|
35
口口口口 |①-②-|
②口口① |③-④-|
④⑧⑧③ |⑤-⑥-|
口⑦⑥⑤ |⑦-⑧-|
36
②④口③ |--①-|
口①①口 |----|
口口口口 |--②-|
口口口口 |③-④-|
37
口口①口 |①---|
②③④口 |②---|
②③④口 |③---|
口口口口 |④---|
38
④②③口 |①---|
口口口① |----|
口口口① |--②-|
口口口口 |③-④-|
39
口口口① |①---|
②③④口 |②---|
②③④口 |③---|
口口口口 |④---|
40
口口口口 |①---|
口口口① |----|
口口口① |----|
口口口口 |----|
41
①②④③ |①-②-|
⑤⑥口口 |--③-|
口口口口 |④---|
口口口口 |⑤-⑥-|
42
口口口口 |--①-|
口口②① |②---|
③④口⑤ |③-④-|
口口口口 |--⑤-|
43
口口口口 |①---|
口口口口 |②-③-|
口口①口 |--④-|
②③⑤④ |⑤---|
44
口口口口 |①-②-|
①②口③ |--③-|
口口口口
口口口口

口口口口
⑤⑥④口
口口口口 |④---|
口口口口 |⑤-⑥-|
45
口口口口 |--①-|
口口②① |②---|
口口口口
口口口口

口口口口
③④口⑤
口口口口 |③-④-|
口口口口 |--⑤-|
46
口口口口 |①---|
②③①口 |②-③-|
口口口口
口口口口

口口口口
口口⑤④
口口口口 |--④-|
口口口口 |⑤---|
47
口口口口 |①-②-|
①②口③ |--③-|
口口口口
口口口口

口口口口
⑤⑥④口
口口口口 |④---|
口口口口 |⑤-⑥-|
48
口口口口 |--①-|
口口②① |②---|
口④④口 |③-④-|
口③③口 |----|
49
①口口① |①-②-|
②④⑤② |----|
口口口口 |③---|
口③③口 |④-⑤-|
50
⑥口口口 |--①-|
口口口口 |--②-|
①口口① |③-④-|
②③④⑤ |⑤-⑥-|
51
口口口① |--①-|
②③口口 |--②-|
口口⑤④ |③---|
口口口口 |④-⑤-|
52
口口口口 |--①-|
口口①口 |--②-|
⑥①口⑥ |③-④-|
②④⑤③ |⑤-⑥-|
53
②口口② |--①-|
③①①③ |----|
口④④口 |②---|
口口口口 |③-④-|
54
口口口口 |--①-|
口口口口 |--②-|
②口口口
口①①口

口口口口
口③口⑤
口口④口 |③-④-|
口⑥⑥口 |⑤-⑥-|
55
口①①口 |--①-|
口口口口 |----|
口④口口 |②---|
②口口③ |③-④-|
56
口③⑤口 |--①-|
②口口④ |--②-|
⑥口①口 |③-④-|
口口口口 |⑤-⑥-|
57
口口口口 |①-②-|
口口口口 |----|
口①②口 |----|
口口口口 |----|
58
口口口口 |①---|
①口③④ |----|
④③口② |②---|
口口口口 |③-④-|
59
口口口口 |--①-|
口①③④ |----|
口口①② |--②-|
口口口口 |③-④-|
60
②口口口 |①---|
③口口口 |----|
口④①口 |②---|
口口口口 |③-④-|
61
②④口③ |--①-|
口口口口 |----|
口口口口 |--②-|
口①口口 |③-④-|
62
口口①口 |①---|
②③③② |②---|
④⑤口口 |③---|
口口⑤④ |④-⑤-|
63
④②③口 |--①-|
口口口口 |----|
口口①口 |--②-|
口①口口 |③-④-|
64
口口口① |①---|
③④⑤⑥ |②---|
⑥⑤④③ |③-④-|
口②②口 |⑤-⑥-|
65
口①①口 |--①-|
口口口口 |----|
口口口口 |----|
口口口口 |----|
66
口口口口 |①---|
①口③④ |----|
④③口② |②---|
口口口口 |③-④-|
67
②③④口 |--①-|
口①口口 |----|
口口①口 |--②-|
口口口口 |③-④-|
68
口口口口 |①-②-|
②口口① |③-④-|
④⑧⑧③ |⑤-⑥-|
口⑦⑥⑤ |⑦-⑧-|
69
②④口③ |--①-|
口①①口 |----|
口口口口 |--②-|
口口口口 |③-④-|
70
口口①口 |①---|
②③④口 |②---|
②③④口 |③---|
口口口口 |④---|
71
④②③口 |①---|
口口口① |----|
口口口① |--②-|
口口口口 |③-④-|
72
口口口① |①---|
②③④口 |②---|
②③④口 |③---|
口口口口 |④---|
73
口口口口 |①---|
口口口① |----|
口口口① |----|
口口口口 |----|


不确定度: 0

最終更新:2012年11月23日 02:30