マスタッシュ
木村カエラ

EXTREME

Level: 7
BPM: 152
Notes: 586

1
口口口口 |----|
口口口口 |----|
口口口口 |----|
口口口口 |----|
2
①口口② |①-②-|
⑤③④⑥ |③-④-|
口⑦⑧口 |⑤-⑥-|
口口口口 |⑦-⑧-|
3
⑥口口⑥ |①-②-|
口口口口 |③-④-|
①口口② |⑤---|
⑤③④⑤ |⑥---|
4
口①②口 |①-②-|
③⑤⑥④ |③-④-|
⑦口口⑧ |⑤-⑥-|
口口口口 |⑦-⑧-|
5
口⑥⑥口 |①-②-|
口口口口 |③-④-|
口①②口 |⑤---|
③⑤⑤④ |⑥---|
6
①③③① |--①-|
口口口口 |②---|
口口口口 |③-④-|
②④④② |----|
7
⑤口口口 |①-②-|
⑤口④② |③-④-|
①③口⑤ |--⑤-|
口口口⑤ |----|
8
口①口口 |--①-|
口⑦②口 |②-③-|
口③⑥口 |④-⑤-|
口⑤④口 |⑥-⑦-|
9
口①①口 |①---|
②⑤⑤③ |②-③-|
②④④③ |--④-|
口⑤⑤口 |⑤---|
10
④③③⑤ |--①-|
口口口口 |②---|
口口口口 |③---|
①口口② |④-⑤-|
11
④口口⑤ |①---|
④口口⑤ |②-③-|
②口口③ |--④-|
口①①口 |⑤---|
12
口③④口 |--①-|
③①②④ |②---|
④①②③ |③---|
口④③口 |④---|
13
口⑤⑤④ |①-②-|
口③口口 |③-④-|
口口②口 |--⑤-|
①口口口 |----|
14
④口口④ |--①-|
③④④③ |②---|
②口口② |③-④-|
①②②① |----|
15
口⑤②口 |①-②-|
③⑤⑤④ |③-④-|
口①⑤口 |--⑤-|
口口口口 |----|
16
口口口口 |--①-|
口⑤⑥口 |②---|
口③④口 |③-④-|
①口口② |⑤-⑥-|
17
口③口② |①---|
①口口① |②-③-|
①口口①
口口口口

口口口口
⑤口④口
口口口口 |--④-|
口口口口 |⑤---|
18
②⑤口④ |--①-|
口口口口 |②---|
口①③口 |③-④-|
口口口口 |--⑤-|
19
口口口口 |①-②-|
⑤口①⑥ |③-④-|
⑤②口⑥ |--⑤-|
口④③口 |⑥---|
20
口④④口 |--①-|
④口口④ |②---|
③口口③ |③---|
①③③② |④---|
21
⑤口口⑤ |①-②-|
口④③口 |③-④-|
口②①口 |--⑤-|
⑥口口口 |--⑥-|
22
口口口口 |①-②-|
③口口④ |--③-|
③口口④ |--④-|
口①②口 |----|
23
①③②① |①---|
④①①④ |②-③-|
口口口口 |--④-|
口口口⑤ |--⑤-|
24
⑥口口⑤ |①-②-|
⑥④③⑤ |③-④-|
口③②① |⑤-⑥-|
口口①口 |----|
25
口口口口 |①---|
口口④口 |----|
①③口② |②---|
①口口② |③-④-|
26
口①①口 |--①-|
口②③口 |----|
口④口口 |--②-|
口口口口 |③-④-|
27
口口口口 |①---|
口口口口 |----|
口口①口
口口口口

②口口②
口口口口
③④④③ |②---|
口③③口 |③-④-|
28
口口口口 |--①-|
①②③① |----|
口④口口 |--②-|
口口口口 |③-④-|
29
口口口口 |①---|
②口口② |②---|
③口①③ |③---|
口⑤④口 |④-⑤-|
30
①口①口 |--①-|
①①①口 |----|
口①口口
口口口口

口口口口
口口口口
口④口口 |--②-|
②口口③ |③-④-|
31
②口口② |①---|
口口口口 |②---|
④口①③ |③-④-|
口⑥⑤口 |⑤-⑥-|
32
口①口① |--①-|
口①①① |----|
口口①口
口口口口

口口口口
口口口口
口④⑤口 |②-③-|
②口口③ |④-⑤-|
33
口口口口 |①---|
①口④② |----|
①③口② |②---|
口口口口 |③-④-|
34
口①①口 |--①-|
口口口口 |----|
口口口口 |--②-|
口④③② |③-④-|
35
③口④② |①-②-|
③口④② |③-④-|
①口口口
①口口口

口⑤口口
口⑤口口
⑦⑧⑧⑥ |⑤-⑥-|
⑦口口⑥ |⑦-⑧-|
36
③口④② |--①-|
①口口① |----|
口口口口 |--②-|
口口口口 |③-④-|
37
口①口口 |①---|
③⑤④② |②-③-|
⑦口口⑥ |④-⑤-|
口口口口 |⑥-⑦-|
38
口口口口 |--①-|
②口口③ |----|
④①①口 |--②-|
①口口① |③-④-|
39
⑤口口⑤ |①---|
口④口口 |②-③-|
口口③① |④---|
⑥②口⑥ |⑤-⑥-|
40
口④⑤口 |--①-|
②口口③ |----|
口①①口 |②-③-|
口①①口 |④-⑤-|
41
④④⑤⑤ |①-②-|
⑥⑥③③ |--③-|
②②口口 |④---|
口口①① |⑤-⑥-|
42
口口口口 |--①-|
口口口口 |②---|
口口①①
②②口口

④口口③
口④③⑤
口口⑤口 |③-④-|
口口口口 |--⑤-|
43
口口口口 |①---|
①口口口 |②-③-|
③①口②
口③②口

口口口口
口口口口
口⑤④口 |--④-|
⑤口口④ |⑤---|
44
口②①口 |①-②-|
④②①③ |--③-|
④⑥⑤③ |④---|
口⑥⑤口 |⑤-⑥-|
45
口口口口 |--①-|
②口口① |②---|
②口口①
口口口口

口口口⑤
口④③⑤
口④③口 |③-④-|
口口口口 |--⑤-|
46
①口口口 |①---|
①③②口 |②-③-|
⑤③②④ |--④-|
⑤口口④ |⑤---|
47
口口口口 |①-②-|
口②①③ |--③-|
口②①③
口口口口

口⑥⑤口
④⑥⑤口
④口口口 |④---|
口口口口 |⑤-⑥-|
48
口口口口 |--①-|
④口口④ |②---|
③②①③ |③-④-|
④②①④ |----|
49
口②②口 |①-②-|
口①①口 |----|
③②②③ |③---|
③④⑤③ |④-⑤-|
50
①②③① |--①-|
④口口④ |--②-|
⑤口口⑤ |③-④-|
口口口口 |--⑤-|
51
口口口口 |--①-|
④②③⑤ |--②-|
④②③⑤ |③---|
①①①① |④-⑤-|
52
口②③口 |--①-|
口④⑤口 |--②-|
⑥口口⑥ |③-④-|
口①①口 |⑤-⑥-|
53
①口口① |--①-|
①口④① |----|
口口③口 |②---|
②口口② |③-④-|
54
口①①口 |--①-|
口⑥口口 |--②-|
口⑤④口 |③-④-|
口③②口 |⑤-⑥-|
55
①口口① |--①-|
口口口口 |----|
②③④② |②---|
口②②口 |③-④-|
56
①口口① |--①-|
口⑥⑤口 |--②-|
口⑤④③ |③-④-|
口口③② |⑤-⑥-|
57
②口口① |①-②-|
②口口① |----|
口口口口 |----|
口口口口 |----|
58
口口口口 |①---|
①口④② |----|
①③口② |②---|
口口口口 |③-④-|
59
口①①口 |--①-|
口②③口 |----|
口④口口 |--②-|
口口口口 |③-④-|
60
口口口口 |①---|
口口口口 |----|
口口①口
口口口口

②口口②
口口口口
③④④③ |②---|
口③③口 |③-④-|
61
口口口口 |--①-|
①②③① |----|
口④口口 |--②-|
口口口口 |③-④-|
62
口口口口 |①---|
②口口② |②---|
③口①③ |③---|
口⑤④口 |④-⑤-|
63
①口①口 |--①-|
①①①口 |----|
口①口口
口口口口

口口口口
口口口口
口④口口 |--②-|
②口口③ |③-④-|
64
②口口② |①---|
口口口口 |②---|
④口①③ |③-④-|
口⑥⑤口 |⑤-⑥-|
65
口①口① |--①-|
口①①① |----|
口口①口
口口口口

口口口口
口口口口
口④⑤口 |②-③-|
②口口③ |④-⑤-|
66
口口口口 |①---|
①口④② |----|
①③口② |②---|
口口口口 |③-④-|
67
口①①口 |--①-|
口口口口 |----|
口口口口 |--②-|
口④③② |③-④-|
68
③口④② |①-②-|
③口④② |③-④-|
①口口口
①口口口

口⑤口口
口⑤口口
⑦⑧⑧⑥ |⑤-⑥-|
⑦口口⑥ |⑦-⑧-|
69
③口④② |--①-|
①口口① |----|
口口口口 |--②-|
口口口口 |③-④-|
70
口①口口 |①---|
③⑤④② |②-③-|
⑦口口⑥ |④-⑤-|
口口口口 |⑥-⑦-|
71
口口口口 |--①-|
②口口③ |----|
④①①口 |--②-|
①口口① |③-④-|
72
⑤口口⑤ |①---|
口④口口 |②-③-|
口口③① |④---|
⑥②口⑥ |⑤-⑥-|
73
口口口口 |--①-|
口口口口 |----|
口①①口 |----|
口①①口 |----|


不确定度: 0

最終更新:2012年11月23日 02:25