Musical Messenger
九州男

ADVANCED

Level: 6
BPM: 130
Notes: 430

1
口口口口 |----|
口口口口 |----|
口口口口 |----|
口口口口 |----|
2
口口⑤⑤ |①-②-|
⑥④③口 |③-④-|
口⑦⑧② |⑤-⑥-|
①①口口 |⑦-⑧-|
3
口口⑤⑤ |①-②-|
⑥④③口 |③-④-|
口⑦⑧② |⑤-⑥-|
①①口口 |⑦-⑧-|
4
口口⑤⑤ |①-②-|
⑥④③口 |③-④-|
口⑦⑧② |⑤-⑥-|
①①口口 |⑦-⑧-|
5
口口口口 |①---|
②口口② |----|
口口口口 |②---|
口①①口 |----|
6
口⑥②口 |①-②-|
⑥③④② |--③-|
①口口⑤ |④---|
口①⑤口 |⑤--⑥|
7
口口①口 |--①-|
⑤口②⑥ |②-③-|
口口③口 |④---|
口口④口 |⑤--⑥|
8
口④口口 |--①-|
口③⑦口 |②-③-|
口②⑥口 |④-⑤-|
口①⑤口 |⑥-⑦-|
9
②口①② |①---|
口口口口 |----|
口口口口 |②---|
口口口口 |----|
10
口⑥②口 |①-②-|
⑥③④② |--③-|
①口口⑤ |④---|
口①⑤口 |⑤--⑥|
11
口口①口 |--①-|
⑤口②⑥ |②-③-|
口口③口 |④---|
口口④口 |⑤--⑥|
12
口④口口 |--①-|
口③⑦口 |②-③-|
口②⑥口 |④-⑤-|
口①⑤口 |⑥-⑦-|
13
口口①口 |①---|
口②②口 |----|
口口口口 |②---|
口口口口 |----|
14
口①口口 |①---|
①③③口 |②---|
口④④② |③---|
口口②口 |④---|
15
口口①口 |①---|
口④④① |②---|
②③③口 |③---|
口②口口 |④---|
16
口①③口 |①---|
①口口③ |②---|
④口口② |③---|
口④②口 |④---|
17
②口口② |①---|
口口口口 |----|
口①①口 |②---|
口口口口 |----|
18
口①口口 |①---|
①③③口 |②---|
口④④② |③---|
口口②口 |④---|
19
口口①口 |①---|
口④④① |②---|
②③③口 |③---|
口②口口 |④---|
20
口①③口 |①---|
①口口③ |②---|
④口口② |③---|
口④②口 |④---|
21
口口口口 |①---|
②口口② |----|
口①①口 |②---|
口口口口 |----|
22
①口②口 |①-②-|
口③口口 |③-④-|
⑤口④⑥ |⑤---|
口口口口 |⑥---|
23
口②口① |①-②-|
口口③口 |③-④-|
⑥④口⑤ |⑤---|
口口口口 |⑥---|
24
①②③④ |①-②-|
⑦⑥⑤口 |③-④-|
口口口口 |⑤-⑥-|
口⑧⑨口 |⑦-⑧⑨|
25
④③②① |--①-|
口⑤⑥口 |②-③-|
口口口口 |④-⑤-|
口⑦⑧口 |⑥-⑦⑧|
26
①口口口 |--①-|
⑤④③② |②-③-|
⑥口口口 |④-⑤-|
口口口口 |--⑥-|
27
口口口口 |①-②-|
口口口口 |③-④-|
⑧①②③ |⑤-⑥-|
⑦⑥⑤④ |⑦-⑧-|
28
口①口口 |----|
口口②口 |①-②-|
口③⑥口 |③-④-|
口⑤④口 |⑤-⑥-|
29
口⑤⑤口 |①-②-|
③口口④ |③-④-|
①⑦⑦② |⑤---|
口⑥⑥口 |⑥-⑦-|
30
②④⑤⑦ |①---|
③①①⑥ |②-③-|
口口口口 |④-⑤-|
口口口口 |⑥-⑦-|
31
口口口口 |①-②-|
口口口口 |③-④-|
④③②① |⑤-⑥-|
⑤⑥⑦⑧ |⑦-⑧-|
32
⑤口口② |--①-|
⑥④③① |②-③-|
⑦口口口 |④-⑤-|
口口口口 |⑥-⑦-|
33
口口口口 |①---|
口口口口 |②-③-|
口①②③ |④-⑤-|
⑦⑥⑤④ |⑥-⑦-|
34
①③④⑥ |----|
②口口⑤ |①-②-|
口口口口 |③-④-|
口口口口 |⑤-⑥-|
35
口口口口 |①-②-|
口口口口 |③-④-|
④③②① |⑤-⑥-|
⑤⑥⑦⑧ |⑦-⑧-|
36
口口口口 |----|
口②③口 |①-②-|
口①④口 |③-④-|
口口口口 |----|
37
⑥口口⑥ |①-②-|
口②③口 |③-④-|
口①④口 |--⑤-|
口⑤⑤口 |⑥---|
38
口①口口 |①---|
①③③口 |②---|
口④④② |③---|
口口②口 |④---|
39
口口①口 |①---|
口④④① |②---|
②③③口 |③---|
口②口口 |④---|
40
口①③口 |①---|
①口口③ |②---|
④口口② |③---|
口④②口 |④---|
41
②口口② |①---|
口口口口 |----|
口①①口 |②---|
口口口口 |----|
42
口①口口 |①---|
①③③口 |②---|
口④④② |③---|
口口②口 |④---|
43
口口①口 |①---|
口④④① |②---|
②③③口 |③---|
口②口口 |④---|
44
口①③口 |①---|
①口口③ |②---|
④口口② |③---|
口④②口 |④---|
45
口口口口 |①---|
②口口② |----|
口①①口 |②---|
口口口口 |----|
46
⑤口口② |①--②|
⑥口口③ |--③-|
口①④口 |④--⑤|
口口口口 |--⑥-|
47
⑥②①⑥ |①-②-|
口④③口 |③-④-|
口⑤口口 |⑤--⑥|
口口⑤口 |----|
48
口口口口 |①--②|
⑤口口② |--③-|
⑥口口③ |④--⑤|
口①④口 |--⑥-|
49
⑥②①口 |①-②-|
口④③⑥ |③-④-|
口口口口 |⑤--⑥|
口⑤⑤口 |----|
50
⑤口口② |①--②|
⑥口口③ |--③-|
口①④口 |④--⑤|
口口口口 |--⑥-|
51
口⑤⑤口 |①--②|
口①②③ |--③-|
口④口口 |④--⑤|
口口④口 |----|
52
⑤口口② |①--②|
⑥口口③ |--③-|
口口口口 |④--⑤|
口①④口 |--⑥-|
53
口①②口 |①-②-|
口③④口 |③-④-|
口口口口
口口口口

口⑧⑨口
口口口口
⑦口口⑦ |⑤⑥-⑦|
口⑤⑥口 |--⑧⑨|
54
口⑥⑤口 |--①-|
④口口② |②-③-|
口口口口 |④--⑤|
口①③口 |--⑥-|
55
④⑤⑥① |①--②|
口口口② |--③-|
口口口③ |--④-|
口口口口 |⑤-⑥-|
56
口口口① |①--②|
④⑤口② |--③-|
口口口③ |----|
口口口口 |④-⑤-|
57
口口口口 |①--②|
口口口① |--③-|
④⑤口② |----|
口口口③ |④-⑤-|
58
口口口① |①--②|
口口口② |--③-|
口口口③ |----|
④⑤口口 |④-⑤-|
59
口口口① |①--②|
口口⑤② |--③-|
口口口③ |--④-|
口口口④ |⑤---|
60
口②口口 |--①-|
③④口口 |②---|
口口①口 |③-④-|
口口口口 |----|
61
口口①口 |①---|
口口②口 |②---|
口口③口 |③---|
口口④口 |④---|
62
①①⑤⑤ |①-②-|
⑥口口② |③-④-|
⑦口口③ |⑤-⑥-|
⑧口口④ |⑦-⑧-|
63
①①⑤⑤ |①-②-|
⑥口口② |③-④-|
⑦口口③ |⑤-⑥-|
⑧口口④ |⑦-⑧-|


不确定度: 0

最終更新:2012年11月23日 02:24