Musical Messenger
九州男

EXTREME

Level: 8
BPM: 130
Notes: 644

1
口口口口 |----|
口口口口 |----|
口口口口 |----|
口口口口 |----|
2
⑩②⑦⑤ |①-②③|
①①①① |④-⑤-|
⑥⑧③⑥ |⑥-⑦⑧|
④⑥⑥⑨ |⑨-⑩-|
3
⑩②⑦⑤ |①-②③|
①①①① |④-⑤-|
⑥⑧③⑥ |⑥-⑦⑧|
④⑥⑥⑨ |⑨-⑩-|
4
⑩②⑦⑤ |①-②③|
①①①① |④-⑤-|
⑥⑧③⑥ |⑥-⑦⑧|
④⑥⑥⑨ |⑨-⑩-|
5
口口口口 |①---|
①①①① |----|
②口口② |②---|
口②②口 |----|
6
①口⑦口 |①-②-|
口②口⑦ |--③-|
⑥⑤④③ |④⑤--|
口⑥口口 |⑥--⑦|
7
口①口口 |--①②|
口口②口 |③④⑤-|
口③口⑤
口口④口

口⑩⑧口
⑪口口⑨
⑥口口口 |⑥⑦-⑧|
口⑦口口 |⑨-⑩⑪|
8
⑤口口⑥ |--①②|
口①②口 |③④⑤⑥|
口④③口
口口口口

口⑨⑪口
⑬⑭口口
口口口口 |⑦⑧⑨⑩|
⑦⑫⑩⑧ |⑪⑫⑬⑭|
9
口⑧⑧口 |-①②-|
口口②① |③④⑤⑥|
③④⑤口 |-⑦⑧-|
⑦⑥⑥⑦ |----|
10
①口⑦口 |①-②-|
口②口⑦ |--③-|
⑥⑤④③ |④⑤--|
口⑥口口 |⑥--⑦|
11
口①口口 |--①②|
口口②口 |③④⑤-|
口③口⑤
口口④口

口⑩⑧口
⑪口口⑨
⑥口口口 |⑥⑦-⑧|
口⑦口口 |⑨-⑩⑪|
12
⑤⑨⑪⑥ |--①②|
⑬①②⑭ |③④⑤⑥|
口④③口 |⑦⑧⑨⑩|
⑦⑫⑩⑧ |⑪⑫⑬⑭|
13
口口口口 |-①②-|
口①②口 |③④⑤⑥|
③④⑤口
⑥口口⑥

口⑧⑧口
⑦口口⑦
口⑨口口 |-⑦⑧-|
口口口口 |---⑨|
14
①口口③ |①-②③|
④口口口 |--④-|
口口②口
口口口口

口⑪口口
口口⑤⑥
口⑨⑩口 |⑤⑥-⑦|
口⑧⑦口 |⑧⑨⑩⑪|
15
⑦口①⑦ |-①-②|
口②③⑧ |③④⑤⑥|
④口口⑤ |-⑦--|
口⑥⑥口 |-⑧--|
16
口①④口 |①-②③|
口口口口 |④-⑤⑥|
②口口⑤
③口口⑥

口⑨口口
口口⑧口
口口口口 |⑦-⑧⑨|
口⑦⑩口 |-⑩--|
17
口⑦口口 |①②③④|
①口口② |⑤⑥-⑦|
③⑥口④
口⑤口口

口口⑩口
⑪⑫口口
口口⑨口 |⑧⑨-⑩|
口口⑧口 |--⑪⑫|
18
⑪口⑩④ |①②③-|
口口②① |④-⑤⑥|
③⑨口口 |⑦⑧⑨-|
⑤⑥⑧⑦ |⑩-⑪-|
19
口口口① |①-②③|
⑥②③⑦ |-④-⑤|
口④⑤口 |-⑥-⑦|
口⑧⑨口 |⑧-⑨-|
20
口①③口 |--①-|
⑤⑧⑦⑥ |②--③|
口②④口 |-④-⑤|
口口口口 |-⑥⑦⑧|
21
口口口口 |①-②-|
⑥口口⑤ |----|
口④④⑦ |③-④-|
③①②③ |-⑤⑥⑦|
22
口②③口 |①②③④|
⑨①④⑩ |⑤⑥⑦⑧|
⑪⑤⑧⑫ |⑨⑩--|
口⑥⑦口 |⑪⑫--|
23
口②③口 |①②③④|
⑨①④⑩ |⑤⑥⑦⑧|
⑪⑤⑧⑫ |⑨⑩--|
口⑥⑦口 |⑪⑫--|
24
④⑤⑥口 |①②-③|
口口口③ |-④⑤⑥|
口②口口
口①口口

口口口⑦
口⑨⑧口
口口口口 |⑦-⑧-|
口⑩⑪口 |⑨-⑩⑪|
25
①②③④ |--①-|
口⑤⑥口 |②-③-|
口口口口 |④-⑤-|
口⑦⑧口 |⑥-⑦⑧|
26
⑨⑩口口 |--①-|
②③口① |②③④⑤|
口口⑤④ |⑥⑦⑧-|
⑥⑦口⑧ |--⑨⑩|
27
口口⑧⑦ |①②③④|
口口②① |⑤⑥⑦⑧|
③④口口
口口⑥⑤

口口口口
⑨⑩口口
口口⑫⑪ |⑨⑩⑪⑫|
⑬⑭口⑮ |⑬⑭⑮-|
28
口①②口 |----|
口③④口 |①②③④|
口口口口
口口口口

口⑪口口
⑨口口⑩
口⑤⑥口 |⑤⑥⑦⑧|
口⑦⑧口 |⑨⑩⑪-|
29
口口口口 |①-②-|
口②②口 |③-④-|
④③③④
①口口①

⑤⑤⑤⑤
口口⑥口
口口⑦口 |⑤---|
口口口口 |⑥-⑦-|
30
②口口口 |①---|
④③口口 |②-③-|
⑥⑤口口 |④-⑤-|
口⑦①口 |⑥-⑦-|
31
口口口① |①-②-|
口口②③ |③-④-|
口口④口
口口口口

口口口口
口口⑧口
口⑦口⑤ |⑤-⑥-|
口口⑥口 |⑦-⑧-|
32
①口⑦口 |--①-|
③②口口 |②-③-|
⑤④口口 |④-⑤-|
口⑥口口 |⑥-⑦-|
33
口①口② |①---|
口口③④ |②-③-|
口口⑤⑥ |④-⑤-|
口口⑦口 |⑥-⑦-|
34
口②口口 |----|
①口④口 |①-②-|
口③口⑥ |③-④-|
口口⑤口 |⑤-⑥-|
35
⑤④③② |①-②-|
口⑥口① |③-④-|
口口⑦口 |⑤-⑥-|
口口口⑧ |⑦-⑧-|
36
口口口口 |----|
口口口口 |①-②-|
②口③④ |③-④-|
①口口口 |----|
37
①口口口 |①-②-|
②口③④ |③-④-|
口口口口
口口口口

口口口口
口⑦⑦口
口⑥⑥口 |--⑤-|
口⑤⑤口 |⑥-⑦-|
38
①⑪②③ |①-②③|
④口⑤⑥ |--④-|
口⑨⑩口 |⑤⑥-⑦|
口⑧⑦口 |⑧⑨⑩⑪|
39
⑦口①⑦ |-①-②|
口②③⑧ |③④⑤⑥|
④口口⑤ |-⑦--|
口⑥⑥口 |-⑧--|
40
口①④口 |①-②③|
口口口口 |④-⑤⑥|
②口口⑤
③口口⑥

口⑨口口
口口⑧口
口口口口 |⑦-⑧⑨|
口⑦⑩口 |-⑩--|
41
口⑦口口 |①②③④|
①口口② |⑤⑥-⑦|
③⑥口④
口⑤口口

口口⑩口
⑪⑫口口
口口⑨口 |⑧⑨-⑩|
口口⑧口 |--⑪⑫|
42
⑪⑨⑩④ |①②③-|
口口②① |④-⑤⑥|
③口口口 |⑦⑧⑨-|
⑤⑥⑧⑦ |⑩-⑪-|
43
口口口① |①-②③|
⑥②③⑦ |-④-⑤|
口④⑤口 |-⑥-⑦|
口⑧⑨口 |⑧-⑨-|
44
①②口口 |--①-|
口口④③ |②-③④|
⑤⑥⑨⑩ |-⑤⑥-|
口口⑦⑧ |⑦⑧⑨⑩|
45
③②①口 |①②③-|
口口口口 |---④|
口④⑤口 |⑤⑥⑦-|
口⑥⑦口 |----|
46
⑤⑤②② |①--②|
⑥⑥③③ |--③-|
①口口④ |④--⑤|
①口口④ |--⑥-|
47
口⑨⑩口 |①②③④|
⑨口口⑩ |⑤⑥⑦⑧|
⑤①②⑥ |⑨--⑩|
⑦③④⑧ |----|
48
⑤⑤口④ |①--②|
⑥⑥口④ |--③-|
①口②② |④--⑤|
①口③③ |--⑥-|
49
⑩口口⑩ |①②③④|
口⑨⑨口 |⑤⑥⑦⑧|
⑤①②⑥ |⑨--⑩|
⑦③④⑧ |----|
50
⑤⑥④④ |①--②|
⑤⑥口口 |--③-|
①①③② |④--⑤|
口口③② |--⑥-|
51
口口口口 |①--②|
③⑤⑤③ |--③-|
④②②④ |④--⑤|
口①①口 |----|
52
⑤⑥③② |①--②|
⑤⑥③② |--③-|
口口口口 |④--⑤|
①①④④ |--⑥-|
53
口口口口 |①②③④|
口口口口 |⑤⑥⑦⑧|
⑤①②⑥
⑦③④⑧

⑨⑩口⑪
口⑬⑬口
口口口口 |⑨⑩-⑪|
口⑫⑫口 |--⑫⑬|
54
口⑤口口 |--①②|
口口口口 |③④⑤-|
①②③④
口口口口

口口口口
⑥口口⑦
口⑧⑨口 |⑥--⑦|
口口口口 |-⑧⑨-|
55
①②③口 |①--②|
口④⑤口 |--③-|
⑩⑥⑦口 |-④⑤⑥|
口⑧⑨口 |⑦⑧⑨⑩|
56
口②①③ |①--②|
①口③② |--③-|
口④⑤口 |----|
口⑥口口 |④⑤-⑥|
57
口②①③ |①--②|
①③②口 |--③-|
口口口口 |----|
口⑤④口 |④-⑤-|
58
口②①③ |①--②|
①③②口 |--③-|
口⑤④口 |----|
口⑦⑥口 |④⑤⑥⑦|
59
口②①③ |①--②|
①③②口 |--③-|
口口口口
口口口口

口口口口
⑤口口口
④口口口 |--④-|
口口口口 |⑤---|
60
口口口口 |--①-|
口口口② |②---|
口口口① |③-④-|
口③④口 |----|
61
⑩①②⑨ |①②③④|
⑧口口③ |⑤⑥⑦⑧|
⑦⑫⑪④ |-⑨-⑩|
口⑥⑤口 |⑪-⑫-|
62
⑦口⑥③ |①-②-|
⑧②口④ |③-④-|
⑤口口⑤ |⑤-⑥-|
①口口① |⑦-⑧-|
63
⑦口⑥③ |①-②-|
⑧②口④ |③-④-|
⑤口口⑤ |⑤-⑥-|
①口口① |⑦-⑧-|


不确定度: 0

最終更新:2012年11月23日 02:24