more more more
capsule

BASIC

Level: 3
BPM: 135
Notes: 253

1
口口口口 |----|
口口口口 |----|
口口口口 |----|
口口口口 |----|
2
口口口口 |①---|
口①②口 |②---|
口③④口 |③---|
口口口口 |④---|
3
③口口③ |①---|
口②②口 |----|
口口口口 |②---|
①口口① |③---|
4
口③③口 |①---|
②口口② |----|
口①①口 |②---|
口口口口 |③---|
5
口口口口 |①---|
口口口口 |----|
①口口① |②---|
②③③② |③---|
6
口口口口 |①---|
②③③② |----|
口①①口 |②---|
口口口口 |③---|
7
口口口口 |①---|
口口口口 |----|
③①①③ |②---|
②口口② |③---|
8
②口口② |①---|
③①①③ |----|
口口口口 |②---|
口口口口 |③---|
9
口口口口 |①---|
口②②口 |----|
③①①③ |②---|
口口口口 |③---|
10
口口口口 |①---|
口口口口 |----|
口①①口 |②---|
③②②③ |③---|
11
口口口口 |①---|
口口②② |----|
①①口口 |②---|
口口口口 |----|
12
口口口口 |①---|
②②口口 |----|
口口①① |②---|
口口口口 |----|
13
口口口口 |①---|
口口口口 |----|
口口口口 |②---|
②②①① |----|
14
①①②② |①---|
口口口口 |----|
口口口口 |②---|
口口口口 |----|
15
口口口口 |①---|
口口口口 |②---|
①②③④ |③---|
口口口口 |④---|
16
口口口口 |①---|
①②③④ |②---|
口口口口 |③---|
口口口口 |④---|
17
①②③④ |①---|
口口口口 |②---|
口口口口 |③---|
口口口口 |④---|
18
口口口口 |①---|
①②③口 |②---|
口④④口 |③---|
口口口口 |④---|
19
③②②③ |①---|
①口口① |②---|
口口口口 |③---|
口口口口 |----|
20
口口口口 |----|
口①①口 |----|
口口口口 |----|
口口口口 |①---|
21
口口口口 |①---|
口口口口 |②---|
①口口① |③---|
③②②③ |----|
22
①②③④ |①---|
口口口口 |②---|
口口口口 |③---|
口口口口 |④---|
23
口口口口 |①---|
口①①口 |②---|
②口口② |③---|
口③③口 |----|
24
口口口口 |----|
口口口口 |----|
口口口口 |----|
口①①口 |①---|
25
③口口③ |①---|
口②②口 |②---|
①口口① |③---|
口口口口 |----|
26
口口口口 |①---|
①口口④ |②---|
口②③口 |③---|
口口口口 |④---|
27
口②①口 |①---|
口③③口 |②---|
口口口口 |③---|
口口口口 |----|
28
口口口口 |①---|
口口口口 |②---|
口口口口 |③---|
①②③④ |④---|
29
口口口口 |①---|
③口口④ |②---|
①口口② |③---|
口口口口 |④---|
30
口口口口 |①---|
口口口口 |②---|
①②③④ |③---|
口口口口 |④---|
31
口口口口 |①---|
口①①口 |----|
口口口口 |----|
口口口口 |----|
32
口口口口 |①---|
③①②④ |②---|
口口口口 |③---|
口口口口 |④---|
33
口口口口 |①---|
口口口口 |②---|
①口口② |③---|
③口口④ |④---|
34
口口口口 |①---|
①③④② |②---|
口口口口 |③---|
口口口口 |④---|
35
口口口口 |①---|
口口口口 |----|
口①①口 |----|
口口口口 |----|
36
口口口口 |①---|
口口口口 |②---|
口口口口 |③---|
④③②① |④---|
37
口口口口 |①---|
口口口口 |②---|
①②③④ |③---|
口口口口 |④---|
38
口口口口 |①---|
①口口② |②---|
口口口口 |③---|
③口口④ |④---|
39
①②③④ |①---|
口口口口 |②---|
口口口口 |③---|
口口口口 |④---|
40
口口口口 |①---|
口①①口 |----|
口口口口 |----|
口口口口 |----|
41
口口口口 |----|
口口口口 |----|
口口口口 |----|
口口口口 |----|
42
口口口口 |①---|
口①②口 |②---|
口③④口 |③---|
口口口口 |④---|
43
口口口口 |①---|
③口口③ |②---|
②口口② |③---|
①口口① |----|
44
口口口口 |----|
口①①口 |----|
口口口口 |----|
口口口口 |①---|
45
口口口口 |①---|
①口口① |②---|
③②②③ |③---|
口口口口 |----|
46
①②③④ |①---|
口口口口 |②---|
口口口口 |③---|
口口口口 |④---|
47
口口口口 |①---|
①口口① |②---|
②口口② |③---|
③口口③ |----|
48
口口口口 |----|
口口口口 |----|
口口口口 |----|
①口口① |①---|
49
口③③口 |①---|
②口口② |②---|
口①①口 |③---|
口口口口 |----|
50
口口口口 |①---|
口口口口 |②---|
口口口口 |③---|
④③②① |④---|
51
③③口口 |①---|
口口②② |②---|
①①口口 |③---|
口口口口 |----|
52
口口口口 |----|
口口口口 |----|
口口口口 |----|
①①口口 |①---|
53
口口③③ |①---|
②②口口 |②---|
口口①① |③---|
口口口口 |----|
54
①②③④ |①---|
口口口口 |②---|
口口口口 |③---|
口口口口 |④---|
55
口口口口 |①---|
口口③③ |②---|
②②口口 |③---|
口口①① |----|
56
口口口口 |----|
口口口口 |----|
口口口口 |----|
口口①① |①---|
57
③③口口 |①---|
口口②② |②---|
①①口口 |③---|
口口口口 |----|
58
口口口口 |①---|
口口口口 |②---|
口口口口 |③---|
①②③④ |④---|
59
口口口口 |①---|
②②②② |----|
口①①口 |②---|
口口口口 |----|


不确定度: 0

最終更新:2012年11月23日 02:24