more more more
capsule

ADVANCED

Level: 6
BPM: 135
Notes: 354

1
口口口口 |----|
口口口口 |----|
口口口口 |----|
口口口口 |----|
2
口①②口 |①②③④|
⑫③④⑪ |⑤⑥⑦⑧|
⑨⑤⑥⑩ |⑨⑩-⑪|
⑬⑦⑧⑬ |⑫-⑬-|
3
②口口② |①-②-|
③口⑤④ |--③-|
口①①口 |④-⑤-|
口口口口 |----|
4
口口口口 |--①-|
口口口口 |--②-|
③④口② |③-④-|
①口口① |----|
5
①口口① |--①-|
②口④③ |--②-|
口口口口 |③-④-|
口口口口 |----|
6
口口口口 |--①-|
口口口口 |--②-|
口口口②
①口口①

口口口口
口口口口
③④⑤口 |③-④-|
⑥口口口 |⑤-⑥-|
7
②口口③ |--①-|
口④口口 |--②-|
口口口口 |③-④-|
口①①口 |----|
8
口①①口 |--①-|
口口口口 |--②-|
口口④口 |③-④-|
③口口② |----|
9
②口口③ |--①-|
口④口口 |--②-|
口口口口 |③-④-|
口①①口 |----|
10
口①①口 |--①-|
口口口口 |--②-|
口口④口 |③-④-|
③口口② |----|
11
③③⑥⑥ |①--②|
⑤⑤②② |--③-|
①①④④ |④--⑤|
口口口口 |--⑥-|
12
口口口口 |①---|
口口口口 |----|
口口口口 |②---|
口①②口 |----|
13
口口口口 |①--②|
③③⑥⑥ |--③-|
⑤⑤②② |④--⑤|
①①④④ |--⑥-|
14
口①②口 |①---|
口口口口 |----|
口口口口 |②---|
口口口口 |----|
15
②③④⑤ |①-②-|
口口口口 |--③-|
口口口口 |--④-|
口口①① |--⑤-|
16
口口口口 |①-②-|
⑤④③② |--③-|
口口口口 |--④-|
①①口口 |--⑤-|
17
②③④⑤ |①-②-|
口口口口 |--③-|
口口口口 |--④-|
口口①① |--⑤-|
18
口口口口 |①-②-|
口口口口 |③---|
口②③口
①①口口

口口口口
口口口口
④⑤⑥口 |--④-|
口口口口 |⑤-⑥-|
19
口①②③ |①--②|
口①②③ |--③-|
口口口口 |----|
口口口口 |----|
20
口口口口 |----|
口③②① |----|
口口口口 |--①-|
口口口口 |②-③-|
21
口口口口 |①--②|
口口口口 |--③-|
③②①口 |----|
③②①口 |----|
22
③⑤⑥④ |--①-|
①⑦口② |②-③-|
口口口口 |④-⑤-|
口口口口 |⑥-⑦-|
23
口口口口 |①--②|
口口口口 |--③-|
③②①口 |----|
③②①口 |----|
24
口口口口 |----|
口口口口 |----|
口③②① |--①-|
口口口口 |②-③-|
25
③②①口 |①--②|
③②①口 |--③-|
口口口口 |----|
口口口口 |----|
26
口④口口 |--①-|
口③⑦口 |②-③-|
②口口⑥ |④-⑤-|
①口口⑤ |⑥-⑦-|
27
③口①③ |①---|
②口口② |②---|
口口口口 |③---|
口口口口 |----|
28
口⑤⑤口 |--①②|
口④④口 |-③-④|
口③③口 |-⑤--|
①口口② |----|
29
①口口① |①---|
②③口口 |----|
口口口④ |②③-④|
口口口口 |----|
30
口④口口 |--①-|
口③⑦口 |②-③-|
②口口⑥ |④-⑤-|
①口口⑤ |⑥-⑦-|
31
③口①③ |①---|
②口口② |②---|
口口口口 |③---|
口口口口 |----|
32
口口口口 |--①②|
⑤口口⑥ |-③④-|
口③④口 |⑤-⑥-|
口①②口 |----|
33
①口口① |①---|
口口口口 |----|
②③口口 |②③-④|
口口口④ |----|
34
口④口口 |-①--|
口③⑦口 |②-③-|
②口口⑥ |④-⑤-|
口①口⑤ |⑥-⑦-|
35
③口①③ |①---|
②口口② |②---|
口口口④ |③---|
口口口口 |④---|
36
口口口口 |①---|
口口口口 |②---|
口口口口 |③---|
④③②① |④---|
37
口口口口 |①---|
口②③口 |②---|
①口④口 |③---|
口口口口 |④---|
38
④口口口 |①---|
②口口③ |②---|
口①口口 |③---|
口口口口 |④---|
39
口⑤口① |①-②-|
口④⑧口 |③-④-|
③口口⑦ |⑤-⑥-|
②口口⑥ |⑦-⑧-|
40
③口①③ |①---|
②口口② |②---|
口口口口 |③---|
口口口口 |----|
41
口口口口 |----|
口口口口 |----|
口口口口 |----|
口口口口 |----|
42
口①②口 |①②③④|
口③④口 |⑤⑥⑦⑧|
口⑤⑥口
口⑦⑧口

口口口口
⑨⑩⑪口
口口口口 |--⑨-|
口口口口 |⑩-⑪-|
43
口口口口 |①--②|
口口口口 |--③-|
口①②③ |----|
口①②③ |----|
44
口口口口 |----|
口口口口 |----|
口③②① |--①-|
口口口口 |②-③-|
45
③②①口 |①--②|
③②①口 |--③-|
口口口口 |----|
口口口口 |----|
46
口口口口 |--①-|
⑤口⑦⑥ |②-③-|
③口口④ |④-⑤-|
①口口② |⑥-⑦-|
47
⑥⑤④口 |①--②|
⑥⑤④口 |--③-|
口①②③ |④--⑤|
口①②③ |--⑥-|
48
口口口口 |----|
口口口口 |----|
①②③口 |--①-|
口口口口 |②-③-|
49
口①②③ |①--②|
口①②③ |--③-|
口口口口 |----|
口口口口 |----|
50
⑤口④⑤ |--①-|
口③口口 |②-③-|
口口②口 |④---|
口①口口 |⑤---|
51
口口口口 |①--②|
⑥⑥③③ |--③-|
②②⑤⑤ |④--⑤|
④④①① |--⑥-|
52
口口口口 |----|
口口口口 |----|
口口口口 |--①-|
①②③口 |②-③-|
53
⑥⑥③③ |①--②|
②②⑤⑤ |--③-|
④④①① |④--⑤|
口口口口 |--⑥-|
54
口口①口 |--①-|
口②⑥口 |②-③-|
口⑤③口 |--④-|
口口④口 |⑤-⑥-|
55
口口口口 |①--②|
③③口口 |--③-|
口口②② |----|
①①口口 |----|
56
口口①口 |----|
口②口口 |----|
口口③口 |--①-|
口口口口 |②-③-|
57
③③口口 |①--②|
口口②② |--③-|
①①口口 |----|
口口口口 |----|
58
口④口口 |-①--|
口③⑦口 |②-③-|
②口口⑥ |④-⑤-|
口①口⑤ |⑥-⑦-|
59
③口①③ |①---|
②口口② |②---|
口口口口 |③---|
口口口口 |----|


不确定度: 0

最終更新:2012年11月23日 02:24