more more more
capsule

EXTREME

Level: 8
BPM: 135
Notes: 555

1
口口口口 |----|
口口口口 |----|
口口口口 |----|
口口口口 |----|
2
①②口口 |①②③④|
③④⑪⑫ |⑤⑥⑦⑧|
⑨⑩⑤⑥ |⑨⑩-⑪|
口⑬⑦⑧ |⑫-⑬-|
3
⑤口口① |①-②③|
②③⑥⑥ |④-⑤-|
⑦⑥④④ |⑥-⑦-|
①口⑧⑧ |⑧---|
4
口⑤①① |①-②③|
口口⑥⑥ |④-⑤-|
⑥⑦④④ |⑥-⑦-|
②③⑧⑧ |⑧---|
5
⑤口①① |①-②③|
②③⑥⑥ |④-⑤-|
⑦⑥④④ |⑥-⑦-|
口口⑧⑧ |⑧---|
6
口⑤①① |①-②③|
⑥⑥⑨⑨ |④-⑤-|
⑧⑧④④ |⑥-⑦-|
②③⑦⑦ |⑧-⑨-|
7
⑤口①① |①-②③|
②③⑥⑥ |④-⑤-|
⑦⑥④④ |⑥-⑦-|
口口⑧⑧ |⑧---|
8
口⑤①① |①-②③|
口口⑥⑥ |④-⑤-|
⑥⑦④④ |⑥-⑦-|
②③⑧⑧ |⑧---|
9
⑤口①① |①-②③|
②③⑥⑥ |④-⑤-|
⑦⑥④④ |⑥-⑦-|
口口⑧⑧ |⑧---|
10
口⑤①① |①-②③|
口口口口 |④-⑤-|
口口④④
②③口口

口口⑧⑧
口口⑥⑥
口口口口 |⑥-⑦-|
口口⑦⑦ |⑧---|
11
口⑥⑤④ |①--②|
①②③口 |--③-|
①④口口 |④--⑤|
①④口口 |--⑥-|
12
口口口口 |①---|
口口口口 |----|
口口①② |②---|
口口①② |----|
13
口⑥⑤④ |①--②|
①②③口 |--③-|
①④口口 |④--⑤|
①④口口 |--⑥-|
14
口③口口 |①---|
口口④口 |----|
口⑤①② |②-③④|
口口①② |⑤---|
15
⑧口⑥② |①-②③|
⑨④⑦③ |--④⑤|
口⑤口口 |--⑥⑦|
①①口口 |--⑧⑨|
16
口②⑥口 |①-②③|
⑧③⑦④ |--④⑤|
⑨口口⑤ |--⑥⑦|
口口①① |--⑧⑨|
17
口口⑥② |①-②③|
⑧④⑦③ |--④⑤|
⑨⑤口口 |--⑥⑦|
①①口口 |--⑧⑨|
18
口口口口 |①-②-|
口②口④ |③-④-|
口口③口
口口①①

⑤⑥⑦口
口口口口
口口口口 |--⑤-|
口⑦⑥⑤ |⑥-⑦-|
19
口口口③ |①--②|
口①②③ |--③-|
③①②口 |----|
③口口口 |----|
20
口口口① |----|
③口口② |----|
②口口③ |--①-|
①口口口 |②-③-|
21
③③口口 |①--②|
口①①口 |--③-|
口②②口 |----|
口口③③ |----|
22
⑤②①⑥ |--①-|
④⑦⑦③ |②-③-|
①口口② |④-⑤-|
⑥③④⑤ |⑥-⑦-|
23
口②②口 |①--②|
②口口② |--③-|
①①①① |----|
③③③③ |----|
24
①口口② |----|
③口口③ |----|
①口口② |--①-|
口口口口 |②-③-|
25
口②①口 |①--②|
口③③口 |--③-|
口③③口 |----|
口①②口 |----|
26
口②口④ |--①-|
①⑤③口 |②-③-|
口⑤口口 |④---|
口口口口 |⑤---|
27
口口①口 |①---|
口口口口 |②---|
口口③① |③---|
口②口口 |----|
28
口⑤⑤口 |--①②|
口②口口 |-③-④|
①口③③ |-⑤--|
④④口口 |----|
29
①口口① |①---|
口口口口 |----|
口②③口 |②③-④|
④口口④ |----|
30
口②口④ |--①-|
①⑥③口 |②-③-|
口⑥口口 |④-⑤-|
⑤口⑦口 |⑥-⑦-|
31
⑤口①⑤ |①---|
口③④口 |②---|
口口③① |③④-⑤|
口②口口 |----|
32
⑥口口⑥ |--①②|
口⑤⑤口 |-③④-|
①②口口 |⑤-⑥-|
口口③④ |----|
33
口口口口 |①---|
口②③口 |----|
④口口④ |②③-④|
①口口① |----|
34
①②口④ |-①--|
①⑥③口 |②-③-|
口⑤口⑦ |④-⑤-|
④口⑥口 |⑥-⑦-|
35
口口①口 |①---|
口口口口 |②---|
④口③口 |③---|
口②口口 |④---|
36
口口口口 |①---|
口口口口 |②---|
口口口口 |③---|
①②③④ |④---|
37
口口口口 |①---|
口口口② |②---|
口口口①
口口口口

口口口口
口口口口
③口口⑥ |③-④⑤|
口④⑤口 |⑥---|
38
⑥⑦①② |①②③④|
⑧⑨③④ |⑤---|
⑤口⑩⑪ |⑥⑦⑧⑨|
口口⑫⑬ |⑩⑪⑫⑬|
39
口口口口 |①②③④|
口口⑥⑤ |⑤-⑥-|
①②口口
③④口口

口口⑧⑨
⑨⑨口⑩
口口⑦口 |⑦-⑧-|
口口口口 |⑨-⑩-|
40
①①口口 |①---|
口口①口 |②---|
口口②② |③---|
口口③③ |----|
41
口口口口 |----|
口口口口 |----|
口口口口 |----|
口口口口 |----|
42
①②⑬⑬ |①②③④|
③④⑪⑪ |⑤⑥⑦⑧|
⑨⑩⑤⑥ |⑨⑩⑪-|
⑫⑫⑦⑧ |⑫-⑬-|
43
③③口口 |①--②|
①①口口 |--③-|
口口②② |----|
口口③③ |----|
44
口口口① |----|
③口口② |----|
②口口③ |--①-|
①口口口 |②-③-|
45
③③口口 |①--②|
口①①口 |--③-|
口②②口 |----|
口口③③ |----|
46
⑤②①⑥ |--①-|
④⑦⑦③ |②-③-|
①口口② |④-⑤-|
⑥③④⑤ |⑥-⑦-|
47
口②②口 |①--②|
②口口② |--③-|
①①①①
③③③③

⑥口口⑥
口④④口
⑤⑤⑤⑤ |④--⑤|
口口口口 |--⑥-|
48
①口口② |----|
③口口③ |----|
①口口② |--①-|
口口口口 |②-③-|
49
口②①口 |①--②|
口③③口 |--③-|
口③③口 |----|
口①②口 |----|
50
口②口④ |--①-|
①⑤③口 |②-③-|
口⑤口口 |④---|
口口口口 |⑤---|
51
⑥⑥③③ |①--②|
②④⑤① |--③-|
①⑤④② |④--⑤|
③③⑥⑥ |--⑥-|
52
口口口口 |----|
③口口③ |----|
口②②口 |--①-|
①口口① |②-③-|
53
①②①② |①--②|
⑥⑥⑥⑥ |--③-|
③③③③ |④--⑤|
④⑤④⑤ |--⑥-|
54
口②②口 |--①-|
口口口口 |②-③-|
①③③①
口口口口

口口口④
⑤口口⑥
⑥口口⑤ |--④-|
④口口口 |⑤-⑥-|
55
③①①口 |①--②|
③②②口 |--③-|
口①①③ |----|
口②②③ |----|
56
①③②口 |----|
①③②口 |----|
口②③① |--①-|
口②③① |②-③-|
57
口口口② |①--②|
③口③② |--③-|
①③口③ |----|
①口口口 |----|
58
口口⑤① |-①--|
②④口③ |②-③-|
③口④② |④---|
①⑤口口 |⑤---|
59
③③口口 |①---|
口口②② |②---|
①①口口 |③---|
口口①① |----|


不确定度: 0

最終更新:2012年11月23日 02:23