Vermilion
Remo-con

BASIC

Level: 7
BPM: 143
Notes: 506

1
口口口口 |----|
口口口口 |----|
口口口口 |----|
口口口口 |----|
2
口④口口 |①-②-|
④口②② |③--④|
口①③口 |----|
口⑤⑥口 |⑤-⑥-|
3
口④口口 |①-②-|
④口②② |③--④|
口①③口 |----|
口⑤⑥口 |⑤-⑥-|
4
口⑤⑤口 |①--②|
③④①② |--③-|
②①④③ |-④--|
口⑥⑥口 |⑤-⑥-|
5
①口口① |①-②-|
③⑥⑥③ |③-④-|
②⑤⑤② |⑤-⑥-|
④口口④ |----|
6
口口口口 |①-②-|
⑧口口⑦ |③-④-|
口④③口 |⑤-⑥-|
①②⑤⑥ |⑦-⑧-|
7
⑦口口⑧ |①-②-|
口③④口 |③-④-|
⑥⑤②① |⑤-⑥-|
口口口口 |⑦-⑧-|
8
口口口口 |①-②-|
⑧口口⑦ |③-④-|
口④③口 |⑤-⑥-|
①②⑤⑥ |⑦-⑧-|
9
①口口口 |①-②-|
⑦②⑤口 |③-④-|
口⑥③⑧ |⑤-⑥-|
口口口④ |⑦-⑧-|
10
口口口口 |①-②-|
⑧口口⑦ |③-④-|
口④③口 |⑤-⑥-|
①②⑤⑥ |⑦-⑧-|
11
⑦口口⑧ |①-②-|
口③④口 |③-④-|
⑥⑤②① |⑤-⑥-|
口口口口 |⑦-⑧-|
12
口口口口 |①-②-|
⑧口口⑦ |③-④-|
口④③口 |⑤-⑥-|
①②⑤⑥ |⑦-⑧-|
13
口①①口 |①-②-|
⑥③③⑥ |③-④-|
⑤②②⑤ |⑤-⑥-|
口④④口 |----|
14
①⑥口④ |①-②-|
⑧口⑦⑤ |③-④-|
②口③口 |⑤-⑥-|
口口口口 |⑦-⑧-|
15
④口⑥① |①-②-|
⑤⑦口⑧ |③-④-|
口③口② |⑤-⑥-|
口口口口 |⑦-⑧-|
16
①⑥口④ |①-②-|
⑧口⑦⑤ |③-④-|
②口③口 |⑤-⑥-|
口口口口 |⑦-⑧-|
17
④口⑥① |①-②-|
⑤⑦口⑧ |③-④-|
口③口② |⑤-⑥-|
口口口口 |⑦-⑧-|
18
口口口① |①-②-|
②⑥⑥口 |③-④-|
口⑤⑤③ |⑤-⑥-|
④口口口 |----|
19
口①①口 |①-②-|
⑥③③⑥ |③-④-|
⑤②②⑤ |⑤-⑥-|
口④④口 |----|
20
①②③④ |①-②-|
口口口口 |③-④-|
⑧⑦⑥⑤ |⑤-⑥-|
口口口口 |⑦-⑧-|
21
⑤⑤⑤⑤ |①-②-|
①②③④ |③-④-|
口口口口 |⑤---|
⑥⑥⑥⑥ |⑥---|
22
口④口口 |①-②-|
④口②② |③--④|
口①③口 |----|
口⑤⑥口 |⑤-⑥-|
23
④口口② |①-②-|
口④口② |③--④|
口①③口 |----|
口⑤⑥口 |⑤-⑥-|
24
口④口口 |①-②-|
④口②② |③--④|
口①③口 |----|
口⑤⑥口 |⑤-⑥-|
25
④口口② |①-②-|
口④口② |③--④|
口①③口 |----|
口⑤⑥口 |⑤-⑥-|
26
口④口口 |①-②-|
④口②② |③--④|
①①③口 |----|
口⑤⑥口 |⑤-⑥-|
27
④口口② |①-②-|
口④口② |③--④|
①口③口 |----|
①⑤⑥口 |⑤-⑥-|
28
口④口口 |①-②-|
④口②② |③--④|
①①③口 |----|
口⑤⑥口 |⑤-⑥-|
29
④口口② |①-②-|
口④口② |③--④|
①口③口 |----|
①⑤⑥口 |⑤-⑥-|
30
⑦口⑥⑧ |①-②-|
⑤口④口 |③-④-|
③口②口 |⑤-⑥-|
①口口口 |⑦-⑧-|
31
口①口口 |①-②-|
口③口② |③-④-|
口⑤口④ |⑤-⑥-|
⑦口⑧⑥ |⑦-⑧-|
32
口口②口 |①---|
口①①② |--②-|
④口③口 |-③--|
⑤口口口 |④-⑤-|
33
口口口① |----|
口口①口 |--①-|
③口口② |-②--|
④口口口 |③-④-|
34
口④口口 |①-②-|
④口②② |③--④|
口①③口 |----|
口⑤⑥口 |⑤-⑥-|
35
④口口② |①-②-|
口④口② |③--④|
口①③口 |----|
口⑤⑥口 |⑤-⑥-|
36
口④口口 |①-②-|
④口②② |③--④|
口①③口 |----|
口⑤⑥口 |⑤-⑥-|
37
口④口口 |①-②-|
④口②② |③--④|
①①③口 |----|
口⑤⑥口 |⑤-⑥-|
38
④口口④ |①-②-|
口②②口 |③--④|
①③③① |----|
口⑤⑥口 |⑤-⑥-|
39
口⑤⑤口 |①--②|
③④①② |--③-|
②①④③ |-④--|
口⑥⑥口 |⑤-⑥-|
40
口③③口 |①---|
②⑤⑤② |②---|
①④④① |③--④|
口口口口 |--⑤-|
41
①口口① |①--②|
口口口口 |-③-④|
④口口③
②口口口

⑥口口⑥
口口口口
口口口口 |-⑤--|
口口口⑤ |⑥---|
42
口③③口 |①---|
②⑤⑤② |②---|
④口口④ |③--④|
口①①口 |--⑤-|
43
⑩口口口 |①②③-|
口⑦⑧⑨ |④⑤⑥-|
口④⑤⑥ |⑦⑧⑨-|
口①②③ |⑩---|
44
口口⑥④ |①-②-|
⑤③⑨口 |③④-⑤|
口口②⑦ |-⑥-⑦|
①⑧口口 |⑧-⑨-|
45
口口⑥④ |①-②-|
⑤③⑨口 |③④-⑤|
口口②⑦ |-⑥-⑦|
①⑧口口 |⑧-⑨-|
46
口口⑥④ |①-②-|
⑤③⑨口 |③④-⑤|
口口②⑦ |-⑥-⑦|
①⑧口口 |⑧-⑨-|
47
口口口口 |①-②-|
⑤③④口 |③---|
口⑤②④ |④---|
①口口口 |⑤---|
48
①⑥口④ |①-②-|
⑧口⑦⑤ |③-④-|
②口③口 |⑤-⑥-|
口口口口 |⑦-⑧-|
49
④口⑥① |①-②-|
⑤⑦口⑧ |③-④-|
口③口② |⑤-⑥-|
口口口口 |⑦-⑧-|
50
①⑥口④ |①-②-|
⑧口⑦⑤ |③-④-|
②口③口 |⑤-⑥-|
口口口口 |⑦-⑧-|
51
④口口口 |①-②-|
口口口③ |③-④-|
口口①①
②口口口

口口⑤口
口口口口
口口⑥口 |⑤-⑥-|
⑧⑦口口 |⑦-⑧-|
52
②①口⑭ |①②③④|
口⑬③④ |⑤⑥⑦⑧|
⑥⑤⑪⑫ |⑨⑩⑪⑫|
⑩⑨⑦⑧ |⑬-⑭-|
53
②①口⑭ |①②③④|
口⑬③④ |⑤⑥⑦⑧|
⑥⑤⑪⑫ |⑨⑩⑪⑫|
⑩⑨⑦⑧ |⑬-⑭-|
54
②①口⑭ |①②③④|
口⑬③④ |⑤⑥⑦⑧|
⑥⑤⑪⑫ |⑨⑩⑪⑫|
⑩⑨⑦⑧ |⑬-⑭-|
55
口⑤⑤口 |①--②|
③④①② |--③-|
②①④③ |-④--|
口⑥⑥口 |⑤-⑥-|
56
①口口① |①-②-|
③口口③ |③-④-|
②口口②
④口口④

口口口口
⑧⑥⑥⑧
⑦⑤⑤⑦ |⑤-⑥-|
口口口口 |⑦-⑧-|


不确定度: 0

タグ:

+ タグ編集
  • タグ:

このサイトはreCAPTCHAによって保護されており、Googleの プライバシーポリシー利用規約 が適用されます。

最終更新:2012年11月27日 22:26