Lovin' Life

BASIC

Level: 2
BPM: 96
Notes: 147

1
口口口口 |----|
口口口口 |----|
口口口口 |----|
口口口口 |----|
2
口④口口 |①--②|
①口③② |--③-|
口⑤口口 |④---|
口口口口 |⑤---|
3
口口口口 |①--②|
①口③② |--③-|
④口口口 |----|
口口口口 |④---|
4
口口口口 |①---|
口口口口 |----|
口①口口 |②---|
口口③② |③---|
5
口口口口 |①---|
口③②口 |②---|
口口口口 |③---|
口①口口 |----|
6
口②③口 |①---|
口口口口 |----|
①口口① |②---|
口口口口 |③---|
7
口口口口 |①---|
①口口② |②---|
口③④口 |③---|
口口口口 |④---|
8
口口口口 |①---|
②①①② |②---|
③口口口 |③---|
口④口口 |④---|
9
口口口口 |①---|
口口口口 |②---|
口③③① |③---|
口口②口 |----|
10
③口口② |①---|
口①①口 |----|
口口口口 |②---|
口口口口 |③---|
11
口②①口 |①---|
口③③口 |②---|
口口口口 |③---|
口口口口 |----|
12
口口口口 |①---|
口口口口 |----|
口①①口 |②---|
③口口② |③---|
13
口口口口 |①---|
口口口口 |②---|
口③③口 |③---|
口②①口 |----|
14
口口口口 |①---|
口①①口 |----|
口口口口
口口口口

口口口口
口②口口
口口③口 |②---|
口口口口 |③---|
15
口口口口 |①---|
口口②① |----|
口③口口 |②---|
口口口口 |③---|
16
口口口口 |①---|
①口口口 |----|
口口口口 |②---|
②口口③ |③---|
17
口口口口 |①---|
口口口口 |----|
①口口口 |②---|
口②③口 |③---|
18
②③口口 |①---|
口口口口 |----|
口①口口 |②---|
口口口口 |③---|
19
口口①② |①---|
口口④③ |②---|
口口口口 |③---|
口口口口 |④---|
20
口口口口 |①---|
①②口口 |②---|
③④口口 |③---|
口口口口 |④---|
21
口口口口 |①---|
口口口口 |②---|
口口①② |③---|
口口④③ |④---|
22
口口口口 |①---|
口③③口 |②---|
口口口口 |③---|
②①口口 |----|
23
口口口口 |①---|
①口口④ |②---|
口②③口 |③---|
口口口口 |④---|
24
口②①口 |①---|
口③③口 |②---|
口口口口 |③---|
口口口口 |----|
25
口口口口 |①---|
口口口口 |----|
①③③① |②---|
口②②口 |③---|
26
口口口口 |①---|
②①①口 |----|
③口口口 |②---|
口口口口 |③---|
27
口口口口 |①---|
口口口口 |②---|
口口口口 |③---|
①②③④ |④---|
28
口③③口 |①---|
口口口② |②---|
口口口① |③---|
口口口口 |----|
29
①口口① |①---|
口口口口 |----|
口②②口 |②---|
口口口口 |----|
30
口②③口 |①---|
口口口口 |----|
①口口① |②---|
口口口口 |③---|
31
口口口口 |①---|
①口口② |②---|
口③④口 |③---|
口口口口 |④---|
32
口口口口 |①---|
②①①② |②---|
③口口口 |③---|
口④口口 |④---|
33
口口口口 |①---|
口口口口 |②---|
口③③① |③---|
口口②口 |----|
34
③口口② |①---|
口①①口 |----|
口口口口 |②---|
口口口口 |③---|
35
口②①口 |①---|
口③③口 |②---|
口口口口 |③---|
口口口口 |----|
36
口口口口 |①---|
口口口口 |----|
口①①口 |②---|
③口口② |③---|
37
口口口口 |①---|
口口口口 |②---|
口③③口 |③---|
口②①口 |----|
38
口口口口 |①---|
口①①口 |----|
口口口口 |----|
口口口口 |----|


不确定度: 0

最終更新:2012年11月23日 02:23