Lovin' Life

ADVANCED

Level: 5
BPM: 96
Notes: 291

1
口口口口 |----|
口口口口 |----|
口口口口 |----|
口口口口 |----|
2
①④⑤① |①--②|
口②②口 |--③-|
③口口③ |----|
口口口口 |④⑤--|
3
①口口① |①--②|
口②②口 |--③-|
③④④③ |----|
口⑤⑤口 |④-⑤-|
4
④③②口 |①---|
口口口口 |--②-|
口口口口 |③-④-|
①⑤⑥① |⑤-⑥-|
5
口口口口 |①---|
③口口③ |②---|
①②②① |③---|
口口口口 |----|
6
①⑥口① |①---|
④口口⑤ |--②-|
口③③口 |③-④⑤|
口②②口 |--⑥-|
7
口⑦①口 |①---|
⑤口口⑥ |②-③-|
口④④口 |④-⑤⑥|
②口口③ |--⑦-|
8
①口口① |①---|
口②②口 |②---|
口口口口
口口口口

口口口口
③⑧⑨④
⑤口口⑥ |③④⑤⑥|
⑦口口口 |⑦-⑧⑨|
9
⑤⑥⑦⑧ |①②③-|
④口口⑨ |④-⑤-|
口①②口 |⑥-⑦-|
口③口口 |⑧-⑨-|
10
②③④口 |①---|
口⑦⑥⑤ |--②③|
⑧⑨口① |④-⑤⑥|
口口口口 |⑦-⑧⑨|
11
口⑧⑨口 |①-②③|
⑤⑥⑦口 |④-⑤⑥|
⑩口①口 |⑦-⑧⑨|
口④③② |--⑩-|
12
口口③② |①---|
口口口口 |--②③|
口口口①
口口口口

口④口口
⑤⑥⑦口
口口⑨⑧ |④-⑤⑥|
口口口口 |⑦-⑧⑨|
13
口口口口 |①-②③|
口⑦⑥⑤ |④-⑤⑥|
⑧①⑨口 |⑦-⑧-|
②③④口 |--⑨-|
14
口口口口 |①---|
口口口③ |②-③-|
口口口①
口②②口

口口口口
口口④口
⑥口⑤口 |④-⑤-|
口⑦口口 |⑥-⑦-|
15
口口口口 |①-②-|
③口口口 |--③-|
口口口口
②口口①

口口口口
口口④口
口⑤口口 |④-⑤-|
⑦⑥口口 |⑥-⑦-|
16
口③口口 |①-②-|
口④口② |--③-|
①⑤口口 |④-⑤-|
⑦⑥口口 |⑥-⑦-|
17
口③口口 |①-②-|
⑦④口② |--③-|
①⑤口口 |④-⑤-|
口⑥口口 |⑥-⑦-|
18
口④口③ |①-②-|
⑤口⑥口 |--③-|
①口口口 |④-⑤-|
口口口② |⑥---|
19
口口口④ |①-②-|
口口⑥⑤ |③---|
⑦口口① |④-⑤-|
口口③② |⑥-⑦-|
20
口口口口 |①-②-|
口口口口 |③---|
口③口口
①②口口

口④口口
口⑤口口
口⑥口口 |④-⑤-|
口⑦口口 |⑥-⑦-|
21
口③口口 |①-②-|
口口口口 |--③-|
口口口口
①口口②

口口口口
口④口口
口⑤口口 |④-⑤-|
⑦⑥口口 |⑥-⑦-|
22
口口⑤④ |①-②-|
口口口③ |--③-|
①口口② |④-⑤-|
口口⑥口 |--⑥-|
23
口口③口 |①-②-|
口口②④ |③-④-|
口口①口
口口口口

口口⑧口
口口⑦口
口⑥口⑤ |⑤-⑥-|
口口口口 |⑦-⑧-|
24
口口口① |①---|
口口口口 |--②-|
④口口⑤ |③-④-|
②⑥口③ |⑤-⑥-|
25
口③口口 |①-②-|
口②口口 |③---|
口①口口
口口口口

口⑦口口
口⑥口口
口⑤口口 |④-⑤-|
口④口口 |⑥-⑦-|
26
②口③口 |①-②-|
①口④口 |----|
口口⑤口 |③-④-|
口口⑥口 |⑤-⑥-|
27
④⑤口口 |①-②-|
③⑥口口 |③-④-|
口⑦口② |⑤-⑥-|
口⑧口① |⑦-⑧-|
28
④⑥口口 |①---|
⑤口口口 |--②-|
②口口③ |③-④-|
口口口① |⑤-⑥-|
29
⑥⑦口口 |①-②-|
⑤①口口 |--③-|
口口口② |④-⑤-|
③口口④ |⑥-⑦-|
30
口⑦口口 |①-②-|
⑤①口⑥ |--③-|
口④④② |④-⑤⑥|
口③③口 |--⑦-|
31
口⑦①口 |①---|
⑤口口⑥ |②-③-|
口④④口 |④-⑤⑥|
②口口③ |--⑦-|
32
①口口① |①---|
口②②口 |②---|
口口口口
口口口口

口口口口
③⑧⑨④
⑤口口⑥ |③④⑤⑥|
⑦口口口 |⑦-⑧⑨|
33
⑤⑥⑦⑧ |①②③-|
④口口⑨ |④-⑤-|
口①②口 |⑥-⑦-|
口③口口 |⑧-⑨-|
34
②③④口 |①---|
口⑦⑥⑤ |--②③|
⑧⑨口① |④-⑤⑥|
口口口口 |⑦-⑧⑨|
35
口⑧⑨口 |①-②③|
⑤⑥⑦口 |④-⑤⑥|
⑩口①口 |⑦-⑧⑨|
口④③② |--⑩-|
36
口口③② |①---|
口口口口 |--②③|
口口口①
口口口口

口④口口
⑤⑥⑦口
口口⑨⑧ |④-⑤⑥|
口口口口 |⑦-⑧⑨|
37
口口口口 |①-②③|
口⑦⑥⑤ |④-⑤⑥|
⑧①⑨口 |⑦-⑧-|
②③④口 |--⑨-|
38
口口口口 |①---|
口口口口 |②---|
口口口① |----|
口②口口 |----|


不确定度: 0

最終更新:2012年11月23日 02:23