Lovin' Life

EXTREME

Level: 7
BPM: 96
Notes: 452

1
口口口口 |----|
口口口口 |----|
口口口口 |----|
口口口口 |----|
2
⑤④②② |①--②|
①①③③ |--③-|
③③①① |----|
②②④⑤ |④⑤--|
3
口口②② |①--②|
①①③③ |--③-|
③③①①
②②口口

口④口口
⑤口口口
口口口⑤ |----|
口口④口 |④-⑤-|
4
口口口② |①---|
④③①口 |--②-|
⑥①口⑥ |③-④-|
口⑤⑤口 |⑤-⑥-|
5
①口口① |①---|
口①①口 |②---|
口口口口
②②②②

口口口口
③③③③
口口口口 |③---|
口口口口 |----|
6
①①①① |①---|
②口口② |--②-|
口口口口
口口口口

口⑥⑥口
口口口口
口③③口 |③-④⑤|
④口⑤⑤ |--⑥-|
7
②⑦⑦③ |①---|
口②③口 |②-③-|
①④④① |④-⑤⑥|
⑥口口⑤ |--⑦-|
8
①口口① |①---|
口②口② |②---|
口②②②
口口②口

③④口口
⑤⑥口口
⑦口口口 |③④⑤⑥|
口口⑨⑧ |⑦-⑧⑨|
9
口口⑤口 |①②③-|
口口④③ |④-⑤-|
口④②①
口⑤口口

口⑧⑨⑥
⑦口口口
口口口⑦ |⑥-⑦-|
⑥⑨⑧口 |⑧-⑨-|
10
②口口口 |①---|
③①口口 |--②③|
口口①口
口口口口

口⑧⑤口
口⑨⑥口
口口口口 |④-⑤⑥|
④口⑦口 |⑦-⑧⑨|
11
口口口② |①-②③|
口口口③ |④-⑤⑥|
⑤口口⑥
口①口④

口口口口
⑦口⑧⑨
口口口口 |⑦-⑧⑨|
口⑩口口 |--⑩-|
12
⑧②口⑤ |①---|
口口口口 |--②③|
⑨③口⑥ |④-⑤⑥|
口④①⑦ |⑦-⑧⑨|
13
口口②口 |①-②③|
⑤口口⑥ |④-⑤⑥|
口口③口
①口④口

口口口口
口口⑩口
⑦口口口 |⑦-⑧⑨|
口⑧⑨口 |--⑩-|
14
口②①② |①---|
口①口① |②-③④|
口②①②
③口口④

口⑩口口
⑨⑤⑥口
口口口⑪ |⑤⑥⑦⑧|
口⑦⑧口 |⑨-⑩⑪|
15
口③④口 |①-②-|
口口口口 |--③④|
②口①口
口口口口

⑥口口⑦
⑩⑤口⑪
口⑧⑨口 |⑤-⑥⑦|
口口口口 |⑧⑨⑩⑪|
16
口口口口 |①-②-|
口口口口 |--③④|
③口口口
④①口②

⑦口⑤口
⑧口⑥口
口⑪口⑨ |⑤⑥⑦⑧|
口⑫口⑩ |⑨⑩⑪⑫|
17
②口口口 |①-②-|
口口口① |--③-|
口③口口
口口口口

口口④口
⑥⑩⑤口
⑦⑪口⑧ |④⑤⑥⑦|
口口口⑨ |⑧⑨⑩⑪|
18
③④口① |①-②-|
口口口口 |--③④|
口口口口
口②口口

口口⑥⑦
口口⑩口
⑧⑨口⑤ |⑤-⑥⑦|
口口口口 |⑧⑨-⑩|
19
口口④⑤ |①②③④|
⑥口口① |⑤--⑥|
口口口口
②③口口

口口口口
口⑦⑫⑬
口口⑧⑨ |⑦⑧⑨⑩|
⑩⑪口口 |⑪-⑫⑬|
20
口口口口 |①②③④|
口口口口 |⑤---|
①②口口
⑤口③④

⑥⑦口口
口口⑫⑬
口口口口 |⑥⑦⑧⑨|
⑩⑪⑧⑨ |⑩⑪⑫⑬|
21
口口③④ |①-②-|
口口口口 |--③④|
①口口②
口口口口

⑨⑩口口
口口口口
⑤⑥⑪⑫ |⑤⑥⑦⑧|
口口⑦⑧ |⑨⑩⑪⑫|
22
⑨⑩口⑧ |①-②-|
⑪口口口 |-③④⑤|
⑤⑦口⑥ |⑥⑦⑧-|
①③④② |-⑨⑩⑪|
23
口口①③ |①②③④|
口口口⑤ |⑤⑥⑦-|
②口口⑦
④⑥口口

⑬口⑫口
口⑭口⑮
⑪口⑩口 |⑧⑨⑩⑪|
口口⑨⑧ |⑫⑬⑭⑮|
24
②口口口 |①---|
口口口口 |--②-|
②口口口
口①口口

口口⑦③
④口口⑤
口口口③ |③-④-|
④⑥口⑤ |⑤-⑥⑦|
25
口①口口 |①②③④|
③⑤口口 |⑤---|
口口口④
口口②口

口⑬⑩口
⑫⑪口⑨
⑥口⑧口 |⑥⑦⑧⑨|
口⑦口口 |⑩⑪⑫⑬|
26
④口口口 |①②③-|
口口①口 |---④|
口口口②
口口③口

口口口⑨
⑧⑪⑥口
⑤口口⑩ |⑤⑥⑦⑧|
⑨⑫⑦口 |⑨⑩⑪⑫|
27
口③①口 |①②③-|
口口口口 |④⑤⑥⑦|
口⑦②⑥
⑤口④口

口⑩⑪口
⑫⑧⑧⑨
口⑬⑬口 |⑧-⑨⑩|
口口口口 |⑪⑫⑬-|
28
口口口口 |①---|
口口口口 |--②-|
②口口口
①口②①

口⑦⑧口
⑥口口⑨
口⑤口③ |③-④⑤|
④③口口 |⑥⑦⑧⑨|
29
口口口口 |①-②-|
口③③口 |-③-④|
④口①口
口②②口

口⑨⑩口
⑧口口⑪
口⑦⑤⑤ |⑤-⑥⑦|
⑥⑥口口 |⑧⑨⑩⑪|
30
口口口口 |①-②-|
③口口③ |--③-|
口口①口
口口②②

口⑦⑦口
口口口口
口④④口 |④-⑤⑥|
⑤口⑥⑥ |--⑦-|
31
②⑦⑦③ |①---|
口②③口 |②-③-|
①④④① |④-⑤⑥|
⑥口口⑤ |--⑦-|
32
①口口① |①---|
口②口② |②---|
口②②②
口口②口

③④口口
⑤⑥口口
⑦口口口 |③④⑤⑥|
口口⑨⑧ |⑦-⑧⑨|
33
口口⑤口 |①②③-|
口口④③ |④-⑤-|
口④②①
口⑤口口

口⑧⑨⑥
⑦口口口
口口口⑦ |⑥-⑦-|
⑥⑨⑧口 |⑧-⑨-|
34
②口口口 |①---|
③①口口 |--②③|
口口①口
口口口口

口⑧⑤口
口⑨⑥口
口口口口 |④-⑤⑥|
④口⑦口 |⑦-⑧⑨|
35
口口口② |①-②③|
口口口③ |④-⑤⑥|
⑤口口⑥
口①口④

口口口口
⑦口⑧⑨
口口口口 |⑦-⑧⑨|
口⑩口口 |--⑩-|
36
⑧②口⑤ |①---|
口口口口 |--②③|
⑨③口⑥ |④-⑤⑥|
口④①⑦ |⑦-⑧⑨|
37
口口②口 |①-②③|
⑤口口⑥ |④-⑤⑥|
口口③口
①口④口

口口口口
口口⑩口
⑦口口口 |⑦-⑧⑨|
口⑧⑨口 |--⑩-|
38
口②①② |①---|
口①口① |②---|
口②①② |----|
口口口口 |----|


不确定度: 0

最終更新:2012年11月23日 02:22