労働 CALLING
怒髪天

BASIC

Level: 3
BPM: 156
Notes: 195

1
口口口口 |----|
口口口口 |----|
口口口口 |----|
口口口口 |----|
2
①②口口 |①---|
③④口口 |②---|
口口口口 |③---|
口口口口 |④---|
3
口口口口 |①---|
口口口口 |②---|
①②口口 |③---|
③口口口 |----|
4
口口①② |①---|
口口③④ |②---|
口口口口 |③---|
口口口口 |④---|
5
口口口口 |①---|
口口口口 |②---|
口口①② |③---|
口口③口 |----|
6
①②口口 |①---|
③④口口 |②---|
口口口口 |③---|
口口口口 |④---|
7
口口口口 |①---|
口口口口 |②---|
①②口口 |③---|
③④口口 |④---|
8
口口口口 |①---|
口口口口 |②---|
口口③④ |③---|
口口①② |④---|
9
口④④口 |①---|
口③②① |②---|
口口口口 |③---|
口口口口 |④---|
10
口口口口 |①---|
①口口② |----|
口口口口 |②---|
口口口口 |----|
11
口口口口 |①---|
口①①口 |②---|
口②②口 |③---|
口③③口 |----|
12
口口口口 |①---|
口口口口 |----|
①口口② |②---|
口口口口 |----|
13
口口口口 |①---|
口②②口 |----|
口①①口 |②---|
口口口口 |----|
14
口口口口 |①---|
①口口② |----|
口口口口 |②---|
口口口口 |----|
15
口口口口 |①---|
口①①口 |②---|
④②②口 |③---|
口③③口 |④---|
16
口口口口 |①---|
③口口② |----|
口口口① |②---|
口口口口 |③---|
17
口①①口 |①---|
口②②口 |②---|
口③③口 |③---|
口口口口 |----|
18
口口口口 |①---|
①口口② |----|
口口口口 |②---|
口口口口 |----|
19
口口口口 |①---|
口①①口 |②---|
口②②口 |③---|
口③③口 |----|
20
口口口口 |①---|
口口口口 |----|
①口口② |②---|
口口口口 |----|
21
口口口口 |①---|
口②②口 |----|
口①①口 |②---|
口口口口 |----|
22
口口口口 |①---|
①口口② |----|
口口口口 |②---|
口口口口 |----|
23
口口口口 |①---|
口①①口 |②---|
④②②口 |③---|
口③③口 |④---|
24
口口口口 |①---|
③口口② |----|
口口口① |②---|
口口口口 |③---|
25
口①①口 |①---|
口②②口 |②---|
口③③口 |③---|
口口口口 |----|
26
口①①口 |①---|
口口口口 |----|
口口口口 |----|
口口口口 |----|
27
口口口口 |①---|
口①①口 |----|
口口口口 |----|
口②口口 |②---|
28
口口口口 |①---|
口③③口 |----|
口②②口 |②---|
口口①口 |③---|
29
口①①口 |①---|
口口口口 |----|
口口口口
口口口口

口②口口
口口口口
口口口口 |----|
口口口口 |②---|
30
口口①口 |①---|
口②口口 |----|
口③口口 |②---|
口口口口 |③---|
31
口口口口 |①---|
口口口口 |----|
口口③口 |②---|
口①②口 |③---|
32
口②③口 |①---|
口口①口 |----|
口口口口 |②---|
口口口口 |③---|
33
口口口口 |①---|
口①①口 |----|
②口口口 |②---|
口口口口 |----|
34
口口口口 |①---|
口③③口 |②---|
口②口① |③---|
口口口口 |----|
35
口①②口 |①---|
口③④口 |②---|
口口口口 |③---|
口口口口 |④---|
36
口口口口 |①---|
口口口口 |②---|
口①②口 |③---|
口③口口 |----|
37
①口口② |①---|
口口口口 |----|
口口口口 |②---|
口口口口 |----|
38
口口口口 |①---|
口①①口 |②---|
口②②口 |③---|
口③③口 |----|
39
口①②口 |①---|
口③④口 |②---|
口口口口 |③---|
口口口口 |④---|
40
口口口口 |①---|
口口口口 |②---|
口①②口 |③---|
口③口④ |④---|
41
口口口口 |①---|
③口口③ |----|
②口口② |②---|
①口口口 |③---|
42
口①①口 |①---|
口②②口 |②---|
口③③口 |③---|
口口口口 |----|
43
口①①口 |----|
口②②口 |①---|
口口口口 |----|
口口口口 |②---|
44
口口口口 |----|
口口口口 |----|
口①①口 |----|
口口口口 |①---|
45
①②口口 |①---|
③④口口 |②---|
口口口口 |③---|
口口口口 |④---|
46
口口口口 |①---|
口口口口 |②---|
①②口口 |③---|
③口口口 |----|
47
口口①② |①---|
口口③④ |②---|
口口口口 |③---|
口口口口 |④---|
48
口口口口 |①---|
口口口口 |②---|
口口①② |③---|
口口③口 |----|
49
①②口口 |①---|
③④口口 |②---|
口口口口 |③---|
口口口口 |④---|
50
口口口口 |①---|
口口口口 |②---|
①②口口 |③---|
③④口口 |④---|
51
口口口口 |①---|
口口口口 |②---|
口口③④ |③---|
口口①② |④---|
52
口④④口 |①---|
口③②① |②---|
口口口口 |③---|
口口口口 |④---|


不确定度: 0

最終更新:2012年11月23日 02:22