労働 CALLING
怒髪天

ADVANCED

Level: 7
BPM: 156
Notes: 341

1
口口口口 |----|
口口口口 |----|
口口口口 |----|
口口口口 |----|
2
①②口口 |①-②-|
口③④⑤ |③-④-|
⑦口口口 |⑤---|
⑥口口口 |⑥-⑦-|
3
口口口口 |①-②-|
⑤④③口 |③-④-|
口口②① |⑤---|
口口口口 |----|
4
口口口⑦ |①-②-|
口口口⑥ |③-④-|
⑤④③口 |⑤---|
口口②① |⑥-⑦-|
5
①②口口 |①-②-|
⑥③④⑤ |③-④-|
口口口口 |⑤---|
口口口口 |--⑥-|
6
①②口口 |①-②-|
口③④⑤ |③-④-|
⑦口口口 |⑤---|
⑥口口口 |⑥-⑦-|
7
口口口口 |①-②-|
⑤④③口 |③-④-|
⑥口②① |⑤-⑥-|
⑦⑧口口 |⑦-⑧-|
8
口②③口 |①---|
口④⑤口 |②-③-|
口⑥⑦口 |④-⑤-|
口口①口 |⑥-⑦-|
9
④⑤⑤④ |①-②-|
②⑥⑥② |③-④-|
③⑥⑥③ |⑤---|
①口口① |⑥---|
10
①②③口 |--①-|
口口④⑤ |②-③-|
口⑥口口 |④-⑤-|
口口口口 |--⑥-|
11
口口口口 |①-②-|
口口口口 |--③-|
口口①口 |----|
口②口③ |----|
12
④③②① |--①-|
⑤⑥⑦口 |②-③-|
口口口口 |④-⑤-|
口口口口 |⑥-⑦-|
13
口口口口 |①-②-|
口口口口 |③-④-|
口①②口 |----|
口③④口 |----|
14
③⑤口② |--①-|
①口口④ |②-③-|
口⑥口口 |④-⑤-|
口口口口 |--⑥-|
15
口口口口 |①-②-|
口④④口 |--③-|
口口①口 |----|
口②口③ |④---|
16
口①①口 |①---|
③口口② |--②-|
⑤口口④ |③-④-|
口口口⑥ |⑤-⑥-|
17
口③③口 |①---|
口②②口 |②---|
口①①口 |③---|
口口口口 |----|
18
口⑥口口 |--①-|
口口口口 |②-③-|
⑤④口口 |④-⑤-|
口③②① |--⑥-|
19
口口①口 |①-②-|
口②口③ |--③-|
口口口口 |----|
口口口口 |----|
20
①口口② |--①-|
③口口④ |②-③-|
⑤口口⑥ |④-⑤-|
⑦口口口 |⑥-⑦-|
21
口口口口 |①-②-|
口①②口 |③-④-|
口③④口 |----|
口口口口 |----|
22
⑤⑥口⑤ |--①-|
④口口④ |②-③-|
③②②③ |④-⑤-|
口①①口 |--⑥-|
23
口口①口 |①-②-|
口②口③ |--③-|
口口口口 |----|
口④④口 |④---|
24
②口口③ |①---|
④口口⑤ |--②-|
⑥①①口 |③-④-|
口口口口 |⑤-⑥-|
25
口口口口 |①---|
口③③⑤ |②---|
口②②④ |③---|
口①①口 |④-⑤-|
26
口口口① |①---|
口⑤⑥口 |--②-|
口③④口 |③-④-|
口②口口 |⑤-⑥-|
27
口①口口 |①---|
口口口口 |----|
口口口口
口口口口

口②②口
口口口口
口口口口 |----|
口口口口 |②---|
28
口口口口 |①---|
口②口口 |--②-|
口口口口
口①①口

口口口口
口口③口
口④⑤口 |③-④-|
口⑥口口 |⑤-⑥-|
29
口口口口 |①---|
口口口口 |----|
③口口③ |----|
②口①② |②-③-|
30
口⑥口口 |①---|
①④⑤① |--②-|
口②③口 |③-④-|
口口口口 |⑤-⑥-|
31
③口①③ |①---|
②⑤⑤② |--②-|
口④④口 |③---|
口口口口 |④-⑤-|
32
口①①口 |①---|
口⑥口口 |--②-|
口④⑤口 |③-④-|
口②③口 |⑤-⑥-|
33
③口口③ |①---|
②口①② |--②-|
口④口口 |③---|
口口口口 |--④-|
34
口④⑤口 |①-②-|
口②③口 |③-④-|
口口①口 |⑤---|
口口口口 |----|
35
①口口② |①---|
口口口② |②---|
④口口口 |③---|
④口口③ |④---|
36
口③③口 |①---|
口②②口 |②---|
口口口口 |③---|
口①①口 |----|
37
①口口④ |--①-|
②口口⑤ |②-③-|
③口口⑥ |④-⑤-|
口口口⑦ |⑥-⑦-|
38
口口口口 |①-②-|
口①②口 |③-④-|
口③④口 |⑤---|
口⑤口口 |----|
39
①口口② |①---|
口口口② |②---|
④口口口 |③---|
④口口③ |④---|
40
口口口口 |①---|
口②②口 |②---|
口口口口
口①①口

口③③口
口口口口
口⑤⑤口 |③---|
口④④口 |④-⑤-|
41
口口口口 |①---|
口①①口 |--②-|
②口口口 |③-④-|
③④⑤⑥ |⑤-⑥-|
42
口③③口 |①---|
口②②口 |②---|
口①①口 |③---|
口口口口 |----|
43
③②②③ |①---|
口口口口 |②---|
口口口口 |③---|
①④④① |④---|
44
口①②口 |①-②-|
口③④口 |③-④-|
口⑥⑥口 |⑤---|
口⑤⑤口 |⑥---|
45
①②口口 |①-②-|
口③④⑤ |③-④-|
⑦口口口 |⑤---|
⑥口口口 |⑥-⑦-|
46
口口口口 |①-②-|
⑤④③口 |③-④-|
口口②① |⑤---|
口口口口 |----|
47
口口口⑦ |①-②-|
口口口⑥ |③-④-|
⑤④③口 |⑤---|
口口②① |⑥-⑦-|
48
①②口口 |①-②-|
⑥③④⑤ |③-④-|
口口口口 |⑤---|
口口口口 |--⑥-|
49
①②口口 |①-②-|
口③④⑤ |③-④-|
⑦口口口 |⑤---|
⑥口口口 |⑥-⑦-|
50
口口口口 |①-②-|
⑤④③口 |③-④-|
⑥口②① |⑤-⑥-|
⑦⑧口口 |⑦-⑧-|
51
口②③口 |①---|
口④⑤口 |②-③-|
口⑥⑦口 |④-⑤-|
口口①口 |⑥-⑦-|
52
④⑤⑤④ |①-②-|
②⑥⑥② |③-④-|
③⑥⑥③ |⑤---|
①口口① |⑥---|


不确定度: 0

最終更新:2012年11月23日 02:21