労働 CALLING
怒髪天

EXTREME

Level: 8
BPM: 156
Notes: 380

1
口口口口 |----|
口口口口 |----|
口口口口 |----|
口口口口 |----|
2
②①①口 |①-②-|
口④③口 |③-④-|
口口口口
口口口口

口⑥⑦⑤
口口口口
口口口口 |⑤---|
口口口口 |⑥-⑦-|
3
④口口⑤ |①-②-|
口口口口 |③-④-|
口①①口 |⑤---|
②口口③ |----|
4
②口口⑤ |①-②-|
⑥口口⑦ |③-④-|
口④③口 |⑤---|
口①①口 |⑥-⑦-|
5
①口⑤⑥ |①-②③|
口②口口 |④-⑤-|
口口③口 |⑥---|
⑦④口⑦ |--⑦-|
6
②口口⑤ |①-②-|
口⑥⑦口 |③-④-|
口④③口 |⑤---|
口①①口 |⑥-⑦-|
7
④①①⑤ |①-②-|
⑧口口口 |③-④-|
⑥口口⑦ |⑤-⑥-|
②口口③ |⑦-⑧-|
8
口口口口 |①---|
口口口① |②-③-|
口口口口
口②③口

口口口口
口⑥⑦⑧
口④⑤口 |④-⑤-|
口口口口 |⑥⑦⑧-|
9
①⑤⑤② |①-②-|
⑥口口⑥ |③-④-|
⑥⑥⑥⑥ |⑤---|
⑥③④⑥ |⑥---|
10
①②⑤④ |--①-|
口⑥③口 |②-③-|
口口口口 |④-⑤-|
口口口口 |--⑥-|
11
口口口口 |①-②-|
口口口② |③-④-|
口口③口 |----|
口④口① |----|
12
口口口口 |--①-|
口口口口 |②-③-|
⑤②⑦④ |④-⑤-|
①⑥③口 |⑥-⑦-|
13
口①③口 |①-②-|
口④②口 |③-④-|
口口口口 |----|
口口口口 |----|
14
⑤④③口 |--①-|
⑥口②① |②-③-|
口口口口 |④-⑤-|
口口口口 |--⑥-|
15
口口口口 |①-②-|
⑥口②⑥ |③-④-|
⑤③口⑤ |----|
④口①口 |⑤-⑥-|
16
口①①口 |①---|
⑤口口⑥ |--②-|
③口口④ |③-④-|
口②②口 |⑤-⑥-|
17
①口口③ |①---|
口①③口 |②---|
口③②口 |③---|
③口口② |----|
18
⑥口口口 |--①-|
口口②口 |②-③-|
口③①⑤ |④-⑤-|
口口④口 |--⑥-|
19
口口②口 |①-②-|
口③口口 |③-④-|
④口①口 |----|
口口口口 |----|
20
口①①口 |--①-|
⑦口口② |②-③-|
⑥口口③ |④-⑤-|
口⑤④口 |⑥-⑦-|
21
口口口口 |①-②-|
口①③口 |③-④-|
口④②口 |----|
口口口口 |----|
22
口⑥口口 |--①-|
②口口口 |②-③-|
①口口口 |④-⑤-|
口③④⑤ |--⑥-|
23
口口口② |①-②-|
⑤口③口 |③-④-|
⑥④口① |----|
口口口口 |⑤-⑥-|
24
口口口口 |①---|
口口口② |--②-|
口口口③ |③-④-|
①⑥⑤④ |⑤-⑥-|
25
①口口② |①---|
③③③③ |②---|
③③③口 |③---|
口口⑤④ |④-⑤-|
26
口口口口 |①---|
口口口口 |--②-|
②⑥⑥④ |③-④-|
③①口⑤ |⑤-⑥-|
27
②②②② |①---|
口①①口 |----|
口口口口 |----|
口口口口 |②---|
28
口口口口 |①---|
口②口口 |--②-|
口口口口
①①①①

口口口口
口口③口
口④⑤口 |③-④-|
口⑥口口 |⑤-⑥-|
29
口口口口 |①---|
口口口口 |----|
口②③口 |----|
口口①口 |②-③-|
30
⑤④③② |①---|
⑥口口口 |--②-|
口口口① |③-④-|
口口口口 |⑤-⑥-|
31
口口⑤④ |①---|
口口口口 |--②-|
①口③③ |③---|
口②③③ |④-⑤-|
32
口①口口 |①---|
②③口口 |--②-|
口④⑤口 |③-④-|
口口⑥口 |⑤-⑥-|
33
②②口④ |①---|
口口口口 |--②-|
口口口口 |③---|
③③口① |--④-|
34
口④②口 |①-②-|
口口口口 |③-④-|
口口口口 |⑤---|
口⑤③① |----|
35
⑥②⑦① |①-②③|
口⑧③口 |④-⑤-|
⑩④⑨⑤ |⑥-⑦⑧|
口口口口 |⑨-⑩-|
36
口口口口 |①-②③|
②口①口 |④-⑤-|
口③口口 |⑥---|
④口⑤⑥ |----|
37
口⑦口口 |--①-|
口⑥③口 |②-③-|
口⑤②口 |④-⑤-|
口④①口 |⑥-⑦-|
38
口口口口 |①-②-|
⑤口口口 |③-④-|
④口口③ |⑤---|
②口口① |----|
39
⑥②⑦① |①-②③|
口⑧③口 |④-⑤-|
⑩④⑨⑤ |⑥-⑦⑧|
口口口口 |⑨-⑩-|
40
口口口口 |①-②③|
②口①口 |④-⑤-|
口③口口
④口⑤口

口口口口
口口口口
口⑧口口 |⑥---|
口⑦口⑥ |⑦-⑧-|
41
③口口⑤ |①---|
口①口口 |--②-|
口口口口 |③-④-|
②⑥⑥④ |⑤-⑥-|
42
口①①口 |①---|
口②②口 |②---|
口③③口 |③---|
口口口④ |④---|
43
口口②② |①---|
③口②② |②---|
①口④④ |③---|
口口④④ |④---|
44
①口口③ |①-②-|
⑥②④⑥ |③-④-|
⑥⑥⑥⑥ |⑤---|
⑥⑤⑤⑥ |⑥---|
45
②①①口 |①-②-|
口④③口 |③-④-|
口口口口
口口口口

口⑥⑦⑤
口口口口
口口口口 |⑤---|
口口口口 |⑥-⑦-|
46
④口口⑤ |①-②-|
口口口口 |③-④-|
口①①口 |⑤---|
②口口③ |----|
47
②口口⑤ |①-②-|
⑥口口⑦ |③-④-|
口④③口 |⑤---|
口①①口 |⑥-⑦-|
48
①口⑤⑥ |①-②③|
口②口口 |④-⑤-|
口口③口 |⑥---|
⑦④口⑦ |--⑦-|
49
②口口⑤ |①-②-|
口⑥⑦口 |③-④-|
口④③口 |⑤---|
口①①口 |⑥-⑦-|
50
④①①⑤ |①-②-|
⑧口口口 |③-④-|
⑥口口⑦ |⑤-⑥-|
②口口③ |⑦-⑧-|
51
口口口口 |①---|
口口口① |②-③-|
口口口口
口②③口

口口口口
口⑥⑦⑧
口④⑤口 |④-⑤-|
口口口口 |⑥⑦⑧-|
52
①⑤⑤② |①-②-|
⑥口口⑥ |③-④-|
⑥⑥⑥⑥ |⑤---|
⑥③④⑥ |⑥---|


不确定度: 0

最終更新:2012年11月23日 02:21