Kiss & Ride
中塚武

BASIC

Level: 3
BPM: 130
Notes: 206

1
口口口口 |----|
口口口口 |----|
口口口口 |----|
口口口口 |----|
2
口①②口 |①---|
口口口口 |----|
口口口口 |②---|
口口口口 |----|
3
口口口口 |①---|
口①①口 |----|
口②②口 |②---|
口口口口 |----|
4
口口口口 |①---|
口口口口 |----|
口口口口 |②---|
口①②口 |----|
5
口口口口 |①---|
口②②口 |----|
口①①口 |②---|
口口口口 |----|
6
口①②口 |①---|
口口口口 |----|
口口口口 |②---|
口口口口 |----|
7
口口口口 |①---|
口①①口 |----|
口②②口 |②---|
口口口口 |----|
8
口口口口 |①---|
口口口口 |----|
口口口口 |②---|
口①②口 |----|
9
口口口口 |①---|
口②②口 |----|
口①①口 |②---|
口口口口 |----|
10
①②④③ |①---|
口口口口 |②---|
口口口口 |③---|
口口口口 |④---|
11
口口口口 |①---|
口①①口 |----|
口②②口 |②---|
口口口口 |----|
12
口口口口 |①---|
口口口口 |②---|
口口口口 |③---|
①②④③ |④---|
13
口口口口 |①---|
口②②口 |----|
口①①口 |②---|
口口口口 |----|
14
①②③④ |①---|
口口口口 |②---|
口口口口 |③---|
口口口口 |④---|
15
口口口口 |①---|
④③②① |②---|
口口口口 |③---|
口口口口 |④---|
16
口口口口 |①---|
口口口口 |②---|
①②③④ |③---|
口口口口 |④---|
17
口口口口 |①---|
口口口口 |②---|
口口口口 |③---|
④③②① |④---|
18
③④口口 |①---|
②口口口 |②---|
①口口口 |③---|
口口口口 |④---|
19
口口口口 |①---|
口④①口 |②---|
口③②口 |③---|
口口口口 |④---|
20
口口口口 |①---|
口④①口 |②---|
口③②口 |③---|
口口口口 |④---|
21
①②④③ |①---|
口口口口 |②---|
口口口口 |③---|
口口口口 |④---|
22
口口口口 |①---|
口①①口 |----|
口②②口 |②---|
口口口口 |----|
23
口口口口 |①---|
口口口口 |②---|
口口口口 |③---|
①②④③ |④---|
24
口口口口 |①---|
口②②口 |----|
口①①口 |②---|
口口口口 |----|
25
①②③④ |①---|
口口口口 |②---|
口口口口 |③---|
口口口口 |④---|
26
口口口口 |①---|
④③②① |②---|
口口口口 |③---|
口口口口 |④---|
27
口口口口 |①---|
口口口口 |②---|
①②③④ |③---|
口口口口 |④---|
28
口口口口 |①---|
口口口口 |②---|
口口口口 |③---|
④③②① |④---|
29
①②口口 |①---|
口口③④ |②---|
口口口口 |③---|
口口口口 |④---|
30
口口②① |①---|
④③口口 |②---|
口口口口 |③---|
口口口口 |④---|
31
口口口口 |①---|
口口口口 |②---|
①②口口 |③---|
口口③④ |④---|
32
口口口口 |①---|
口口口口 |②---|
口口②① |③---|
④③口口 |④---|
33
口③④口 |①---|
①②口口 |②---|
口口口口 |③---|
口口口口 |④---|
34
口口口口 |①---|
口口①② |②---|
口口④③ |③---|
口口口口 |④---|
35
口口口口 |①---|
口口口口 |②---|
④③口口 |③---|
口②①口 |④---|
36
口口口口 |①---|
①②③④ |②---|
口口口口 |③---|
口口口口 |④---|
37
①②④③ |①---|
口口口口 |②---|
口口口口 |③---|
口口口口 |④---|
38
口口口口 |①---|
口①①口 |----|
口②②口 |②---|
口口口口 |----|
39
口口口口 |①---|
口口口口 |②---|
口口口口 |③---|
①②④③ |④---|
40
口口口口 |①---|
口②②口 |----|
口①①口 |②---|
口口口口 |----|
41
①②③④ |①---|
口口口口 |②---|
口口口口 |③---|
口口口口 |④---|
42
口口口口 |①---|
④③②① |②---|
口口口口 |③---|
口口口口 |④---|
43
口口口口 |①---|
口口口口 |②---|
①②③④ |③---|
口口口口 |④---|
44
口口口口 |①---|
口②④口 |②---|
口①③口 |③---|
口口口口 |④---|
45
①②口口 |①---|
口口③④ |②---|
口口口口 |③---|
口口口口 |④---|
46
口口②① |①---|
④③口口 |②---|
口口口口 |③---|
口口口口 |④---|
47
口口口口 |①---|
口口口口 |②---|
①②口口 |③---|
口口③④ |④---|
48
口口口口 |①---|
口口口口 |②---|
口口②① |③---|
④③口口 |④---|
49
口③④口 |①---|
①②口口 |②---|
口口口口 |③---|
口口口口 |④---|
50
口口口口 |①---|
口口①② |②---|
口口④③ |③---|
口口口口 |④---|
51
口口口口 |①---|
口口口口 |②---|
④③口口 |③---|
口②①口 |④---|
52
口口口口 |①---|
①②③④ |②---|
口口口口 |③---|
口口口口 |④---|
53
口口口口 |①---|
口口口口 |②---|
④③②① |③---|
口口口口 |④---|
54
口①②口 |①---|
口口口口 |----|
口口口口 |②---|
口口口口 |----|
55
口口口口 |①---|
口①①口 |----|
口②②口 |②---|
口口口口 |----|


不确定度: 0

最終更新:2012年11月23日 02:21