Kiss & Ride
中塚武

ADVANCED

Level: 7
BPM: 130
Notes: 460

1
口口口口 |----|
口口口口 |----|
口口口口 |----|
口口口口 |----|
2
①②⑥⑥ |①-②-|
口③口口 |③---|
口口⑤口 |④--⑤|
口口④口 |--⑥-|
3
⑤⑤口口 |--①-|
口口②① |②-③-|
④③口口 |④--⑤|
口口口口 |----|
4
口口口口 |①-②-|
口口口口 |③---|
口口③口
口口②①

口口⑤⑤
口口口口
口⑥⑥口 |④--⑤|
④④口口 |--⑥-|
5
口口口口 |--①-|
①②③④ |②-③-|
口口口口 |④--⑤|
口⑤⑤口 |----|
6
①②⑥⑥ |①-②-|
口③口口 |③---|
口口⑤口 |④--⑤|
口口④口 |--⑥-|
7
⑤⑤口口 |--①-|
口口②① |②-③-|
④③口口 |④--⑤|
口口口口 |----|
8
口口口口 |①-②-|
口口口口 |③---|
口口③口
口口②①

口口⑤⑤
口口口口
口⑥⑥口 |④--⑤|
④④口口 |--⑥-|
9
口口口口 |--①-|
①②③④ |②-③-|
口口口口 |④--⑤|
口⑤⑤口 |----|
10
①②⑥⑥ |①-②-|
①③口口 |③---|
口口⑤口 |④--⑤|
口口④④ |--⑥-|
11
⑤⑤口口 |--①-|
口口②① |②-③-|
④③口口 |④--⑤|
口口口口 |----|
12
口口口口 |①-②-|
口口口口 |③---|
口口③①
口口②①

口口⑤⑤
口口口口
口⑥⑥口 |④--⑤|
④④口口 |--⑥-|
13
口口口口 |--①-|
①②③④ |②-③-|
口口口口 |④--⑤|
口⑤⑤口 |----|
14
①②口口 |①-②-|
口③口口 |③-④-|
口④⑦⑨ |⑤-⑥⑦|
口⑤⑥⑧ |-⑧⑨-|
15
⑥⑦口① |①-②-|
口口③② |③-④-|
⑤④口口 |⑤--⑥|
口口口口 |-⑦--|
16
口口口口 |①-②-|
口口口口 |③-④-|
口口③④
口口②①

口⑦⑧口
口口口口
口⑥⑨口 |⑤-⑥⑦|
⑤⑤口口 |-⑧⑨-|
17
①口口口 |①-②-|
②③④⑤ |③-④-|
口口口⑥ |⑤-⑥-|
口口⑧⑦ |⑦-⑧-|
18
⑤⑥⑦⑧ |①-②-|
④口口口 |③-④-|
③口口口 |⑤-⑥-|
②①口口 |⑦-⑧-|
19
口口口口 |①②③④|
⑧口口① |⑤⑥⑦⑧|
⑦口口②
⑥⑤④③

⑨⑩⑪⑫
口口口⑬
口口口⑭ |⑨⑩⑪⑫|
口口⑯⑮ |⑬⑭⑮⑯|
20
⑤⑥⑦⑧ |①②③④|
④口口⑨ |⑤⑥⑦⑧|
③口口⑩ |⑨⑩⑪⑫|
②①⑫⑪ |----|
21
①②⑥⑥ |①-②-|
①③口口 |③---|
口口⑤口 |④--⑤|
口口④④ |--⑥-|
22
⑤⑤口口 |--①-|
口口②① |②-③-|
④③口口 |④--⑤|
口口口口 |----|
23
口口口口 |①-②-|
口口口口 |③---|
口口③①
口口②①

口口⑤⑤
口口口口
口⑥⑥口 |④--⑤|
④④口口 |--⑥-|
24
口口口口 |--①-|
①②③④ |②-③-|
口口口口 |④--⑤|
口⑤⑤口 |----|
25
①②⑥⑥ |①-②-|
①③口口 |③---|
口口⑤口 |④--⑤|
口口④④ |--⑥-|
26
⑤⑤口口 |--①-|
口口②① |②-③-|
④③口口 |④--⑤|
口口口口 |----|
27
口口口口 |①-②-|
口口口口 |③---|
口口③①
口口②①

口口⑤⑤
口口口口
口⑥⑥口 |④--⑤|
④④口口 |--⑥-|
28
口口口口 |--①-|
①②③④ |②-③-|
口口口口 |④-⑤⑥|
口⑤⑥口 |----|
29
①②口口 |①-②-|
口③口口 |③-④-|
口④⑦⑨ |⑤-⑥⑦|
口⑤⑥⑧ |-⑧⑨-|
30
⑥⑦⑧① |①-②-|
口口③② |③-④-|
⑤④口口 |⑤-⑥-|
口口口口 |⑦-⑧-|
31
⑥⑥口口 |①-②-|
口口⑤口 |-③--|
口④口口 |④--⑤|
③口②① |-⑥--|
32
口口②① |①-②-|
④③口口 |③-④-|
⑤⑥⑧口 |⑤-⑥-|
口口⑦⑨ |-⑦⑧⑨|
33
口口口口 |①-②-|
④口②口 |③-④-|
口③口①
口口口口

口⑤⑥口
口口⑦口
口口⑧口 |⑤-⑥-|
口口口口 |⑦-⑧-|
34
⑤口⑦⑨ |①-②-|
④口⑥⑧ |③-④-|
③口口口 |⑤-⑥⑦|
②①口口 |-⑧⑨-|
35
口口口口 |①-②-|
口②③口 |③---|
口口口口
口①①口

④口口④
口口口口
口⑥⑧口 |④-⑤⑥|
口⑤⑦口 |-⑦⑧-|
36
④口口④ |①-②-|
③口口③ |③-④-|
②口口②
①口口①

口口口口
口口口⑧
⑨⑥⑥⑦ |⑤--⑥|
口⑤⑤口 |-⑦⑧⑨|
37
①②⑥⑥ |①-②-|
①③口口 |③---|
口口⑤口 |④--⑤|
口口④④ |--⑥-|
38
⑤⑤口口 |--①-|
口口②① |②-③-|
④③口口 |④--⑤|
口口口口 |----|
39
口口口口 |①-②-|
口口口口 |③---|
口口③①
口口②①

口口⑤⑤
口口口口
口⑥⑥口 |④--⑤|
④④口口 |--⑥-|
40
口口口口 |--①-|
①②③④ |②-③-|
口口口口 |④--⑤|
口⑤⑤口 |----|
41
①②⑥⑥ |①-②-|
①③口口 |③---|
口口⑤口 |④--⑤|
口口④④ |--⑥-|
42
⑤⑤口口 |--①-|
口口②① |②-③-|
④③口口 |④--⑤|
口口口口 |----|
43
口口口口 |①-②-|
口口口口 |③---|
口口③①
口口②①

口口⑤⑤
口口口口
口⑥⑥口 |④--⑤|
④④口口 |--⑥-|
44
口口口口 |--①-|
①②③④ |②-③-|
口口口口 |④-⑤-|
口⑤⑥⑦ |⑥-⑦-|
45
①②口口 |①-②-|
口③口口 |③-④-|
口④⑦⑨ |⑤-⑥⑦|
口⑤⑥⑧ |-⑧⑨-|
46
口口口① |①-②-|
口口③② |③-④-|
口④口口
口口口口

⑥口口⑦
口口口口
⑤口口口 |⑤-⑥-|
口口口口 |-⑦--|
47
⑤⑤口口 |--①-|
口口④口 |-②--|
口③口口 |③--④|
②口口① |-⑤--|
48
口口②① |①-②-|
④③口口 |③-④-|
⑤⑥⑧口 |⑤-⑥-|
口口⑦⑨ |-⑦⑧⑨|
49
口口口口 |①-②-|
④口②口 |③-④-|
口③口①
口口口口

口⑤⑥口
口口⑦口
口口⑧口 |⑤-⑥-|
口口口口 |⑦-⑧-|
50
⑤口⑥口 |①-②-|
④口口口 |③-④-|
③⑦⑧⑨ |⑤-⑥⑦|
②①口口 |-⑧-⑨|
51
口口口口 |①-②-|
口②③口 |③---|
口口口口
口①①口

④口口④
口口口口
口⑥⑧口 |④-⑤⑥|
口⑤⑦口 |-⑦⑧-|
52
④⑤⑤④ |①-②-|
③⑥⑥③ |③-④-|
②⑦⑦② |⑤-⑥-|
①⑧⑧① |⑦-⑧-|
53
④⑤⑤④ |①-②-|
③⑥⑥③ |③-④-|
②⑦⑦② |⑤-⑥-|
①⑧⑧① |⑦-⑧-|
54
①②⑥⑥ |①-②-|
口③口口 |③---|
口口⑤口 |④--⑤|
口口④口 |--⑥-|
55
⑤⑤口口 |--①-|
口口②① |②-③-|
④③口口 |④--⑤|
口口口口 |----|


不确定度: 0

最終更新:2012年11月23日 02:20