Kiss & Ride
中塚武

EXTREME

Level: 9
BPM: 130
Notes: 705

1
口口口口 |----|
口口口口 |----|
口口口口 |----|
口口口口 |----|
2
口口②③ |①-②-|
口口①口 |③---|
口①口口
③②口口

口口口⑥
⑤口口⑤
④口口④ |④--⑤|
⑥口口口 |--⑥-|
3
②①口口 |--①-|
③口⑤④ |②-③-|
④⑤口③ |④--⑤|
口口①② |----|
4
③②口口 |①-②-|
口①口口 |③---|
口口①口
口口②③

口⑥口口
⑤口口⑤
④口口④ |④--⑤|
口口⑥口 |--⑥-|
5
口口①口 |--①-|
⑤③②⑤ |②-③-|
④②③④ |④--⑤|
口①口口 |----|
6
口口②③ |①-②-|
口口①口 |③---|
口①口口
③②口口

口口口⑥
⑤口口⑤
④口口④ |④--⑤|
⑥口口口 |--⑥-|
7
②①口口 |--①-|
③口⑤④ |②-③-|
④⑤口③ |④--⑤|
口口①② |----|
8
③②口口 |①-②-|
口①口口 |③---|
口口①口
口口②③

口⑥口口
⑤口口⑤
④口口④ |④--⑤|
口口⑥口 |--⑥-|
9
口口①口 |--①-|
⑤③②⑤ |②-③-|
④②③④ |④--⑤|
口①口口 |----|
10
口口②③ |①-②-|
口①①口 |③---|
口①①口
③②口口

口口口⑥
⑤口口⑤
④口口④ |④--⑤|
⑥口口口 |--⑥-|
11
③②口口 |①-②-|
④口①口 |③-④-|
口①口④
口口②③

口口口口
口口⑥⑤
⑤⑥口口 |⑤--⑥|
口口口口 |----|
12
③②①口 |①-②-|
口①口口 |③---|
口口①口
口①②③

口⑥口口
⑤口口⑤
④口口④ |④--⑤|
口口⑥口 |--⑥-|
13
①口②口 |①-②-|
⑥④③⑥ |③-④-|
⑤③④⑤ |⑤--⑥|
口②口① |----|
14
口口②③ |①-②-|
口口①④ |③-④-|
④①口口
③②口口

口⑦⑨口
⑤⑥⑧口
口⑧⑥⑤ |⑤-⑥⑦|
口⑨⑦口 |-⑧⑨-|
15
①口口④ |①-②-|
②口口③ |③-④-|
③口口②
④口口①

⑥⑤口口
⑦口口口
口口口⑦ |⑤--⑥|
口口⑤⑥ |-⑦--|
16
口口②③ |①-②-|
口口①④ |③-④-|
④①口口
③②口口

口⑦⑨口
⑤⑥⑧口
口⑧⑥⑤ |⑤-⑥⑦|
口⑨⑦口 |-⑧⑨-|
17
①口口④ |①-②-|
②口口③ |③-④-|
③口口②
④口口①

⑦⑥⑤口
⑧口口口
口口口⑧ |⑤-⑥-|
口⑤⑥⑦ |⑦-⑧-|
18
口④③② |①-②-|
口口口① |③-④-|
①口口口
②③④口

⑤口口⑧
⑥口口⑦
⑦口口⑥ |⑤-⑥-|
⑧口口⑤ |⑦-⑧-|
19
⑥④②口 |①②③④|
⑧口口口 |⑤⑥⑦⑧|
口口口⑦
口①③⑤

口⑮⑬⑪
口口口⑨
⑩口口口 |⑨⑩⑪⑫|
⑫⑭⑯口 |⑬⑭⑮⑯|
20
①口口口 |①②③④|
③⑦口⑥ |⑤⑥⑦⑧|
⑤口⑧④
口口口②

⑪⑨口口
口口口口
口口口口 |⑨⑩⑪⑫|
口口⑩⑫ |----|
21
口口②③ |①-②-|
口口①口 |③---|
口①口口
③②口口

口口口⑥
⑤口口⑤
④口口④ |④--⑤|
⑥口口口 |--⑥-|
22
③②口口 |①-②-|
④口①口 |③-④-|
口①口④
口口②③

口口口口
口口⑥⑤
⑤⑥口口 |⑤--⑥|
口口口口 |----|
23
③②①口 |①-②-|
口①口口 |③---|
口口①口
口①②③

口⑥口口
⑤口口⑤
④口口④ |④--⑤|
口口⑥口 |--⑥-|
24
①口②口 |①-②-|
⑥④③⑥ |③-④-|
⑤③④⑤ |⑤--⑥|
口②口① |----|
25
口口②③ |①-②-|
口①①口 |③---|
口①①口
③②口口

口口口⑥
⑤口口⑤
④口口④ |④--⑤|
⑥口口口 |--⑥-|
26
③②口口 |①-②-|
④口①口 |③-④-|
口①口④
口口②③

口口口口
口口⑥⑤
⑤⑥口口 |⑤--⑥|
口口口口 |----|
27
③②①口 |①-②-|
口①口口 |③---|
口口①口
口①②③

口⑥口口
⑤口口⑤
④口口④ |④--⑤|
口口⑥口 |--⑥-|
28
①口②口 |①-②-|
口④③口 |③-④-|
口③④口
口②口①

⑧⑨口口
⑦口口⑦
⑤口口⑤ |⑤-⑥⑦|
⑥口⑩⑥ |-⑧⑨⑩|
29
口口②③ |①-②-|
口口①④ |③-④-|
④①口口
③②口口

⑥口⑦⑧
⑤口口口
口口口⑤ |⑤-⑥-|
⑧⑦口⑥ |⑦-⑧-|
30
③②口口 |①-②-|
④口①口 |③-④-|
口①口④
口口②③

口口⑦⑥
口口⑧⑤
⑤⑧口口 |⑤-⑥-|
⑥⑦口口 |⑦-⑧-|
31
口②口口 |①-②-|
口①口口 |-③--|
口口①口
③口②③

口⑥口口
⑤口口⑤
④口口④ |④--⑤|
口口⑥口 |-⑥--|
32
①口②口 |①-②-|
口④③口 |③-④-|
口③④口
口②口①

⑦⑧口口
⑥口口⑥
⑤口口⑤ |⑤-⑥-|
口口⑩⑨ |⑦⑧⑨⑩|
33
口口②③ |①-②-|
口口①④ |③-④-|
④①口口
③②口口

⑥口⑦⑧
⑤口口口
口口口⑤ |⑤-⑥-|
⑧⑦口⑥ |⑦-⑧-|
34
③②口口 |①-②-|
④口①口 |③-④-|
口①口④
口口②③

口口⑦口
口口⑥⑤
⑤⑨口口 |⑤-⑥⑦|
口⑧口口 |-⑧⑨-|
35
③②口口 |①-②-|
⑤①④⑥ |③---|
⑦④①⑧ |④-⑤⑥|
口口②③ |-⑦⑧-|
36
①口②口 |①-②-|
口④③口 |③-④-|
口③④口
口②口①

⑧⑨口⑩
口口口口
⑤口口⑤ |⑤--⑥|
口口⑦⑥ |⑦⑧⑨⑩|
37
口口①口 |①-②-|
②③④⑤ |--③-|
口口口口 |--④-|
②③④⑤ |--⑤-|
38
口口口口 |--①-|
①②③④ |--②-|
口口口口 |--③-|
①②③④ |--④-|
39
口口口口 |--①-|
①②③④ |--②-|
口口口口 |--③-|
①②③④ |--④-|
40
口口口口 |--①-|
①②③口 |--②-|
口口④⑤ |--③-|
①②③口 |④-⑤-|
41
口③②① |①-②-|
②④⑥⑧ |③-④-|
⑤⑦⑧口 |⑤-⑥⑦|
②④⑥⑧ |--⑧-|
42
口③②① |--①-|
①③⑤⑦ |②-③-|
④⑥口口 |④-⑤⑥|
①③⑤⑦ |--⑦-|
43
口③②① |①-②-|
②④⑥⑧ |③-④-|
⑤⑦⑧口 |⑤-⑥⑦|
②④⑥⑧ |--⑧-|
44
口口口口 |--①-|
①③⑤口 |②-③-|
②④⑥⑦ |④-⑤-|
①③⑤口 |⑥-⑦-|
45
④③②① |①-②-|
②④⑥⑨ |③-④-|
⑤口⑦⑧ |⑤-⑥⑦|
②④⑥⑨ |-⑧⑨-|
46
④③②① |①-②-|
②④⑥⑧ |③-④-|
⑤⑥⑦口 |⑤-⑥-|
②④⑥⑧ |-⑦⑧-|
47
⑥④②① |--①-|
①③⑤⑦ |-②③-|
口口口口 |④-⑤⑥|
①③⑤⑦ |--⑦-|
48
口口④③ |①-②-|
②④口口 |③-④-|
口口①②
②④口口

⑥⑤口口
口口⑥⑧
⑦⑧⑨口 |⑤-⑥-|
口口⑥⑧ |-⑦⑧⑨|
49
④③②口 |①-②-|
②④口口 |③-④-|
口口口①
②④口口

口口口口
口口⑥⑧
⑤⑥⑦⑧ |⑤-⑥-|
口口⑥⑧ |⑦-⑧-|
50
口口④③ |--①-|
①②④⑦ |--②-|
⑤⑥⑧口 |③-④⑤|
①②④⑦ |-⑥⑦⑧|
51
口④②① |--①-|
①③⑤⑦ |②-③-|
⑥⑦口口 |④-⑤-|
①③⑤⑦ |-⑥⑦-|
52
口口口口 |--①-|
①③⑥④ |②-③-|
⑤⑤②② |--④-|
①③⑥④ |⑤-⑥-|
53
⑦⑦②① |--①-|
口⑥口⑤ |②-③-|
⑤口⑥口 |④-⑤-|
③④⑦⑦ |⑥-⑦-|
54
口口②③ |①-②-|
口口①口 |③---|
口①口口
③②口口

口口口⑥
⑤口口⑤
④口口④ |④--⑤|
⑥口口口 |--⑥-|
55
②①口口 |--①-|
③口⑤④ |②-③-|
④⑤口③ |④--⑤|
口口①② |----|


不确定度: 0

最終更新:2012年11月23日 02:20