キミ、メグル、ボク

BASIC

Level: 1
BPM: 144
Notes: 130

1
口口口口 |----|
口口口口 |----|
口口口口 |----|
口口口口 |----|
2
口口口口 |①---|
口①①口 |----|
口口口口 |----|
口口口口 |----|
3
口口口口 |----|
口口口口 |----|
口口口口 |----|
口口口口 |----|
4
口口口口 |----|
口口口口 |----|
口口口口 |----|
口口口口 |----|
5
口口口口 |①---|
口口口口 |----|
口①①口 |----|
口口口口 |----|
6
口口口口 |①---|
①②口口 |----|
口口口口 |②---|
口口口口 |----|
7
口口口口 |①---|
口口①② |----|
口口口口 |②---|
口口口口 |----|
8
口口口口 |①---|
口口口口 |----|
口口②① |②---|
口口口口 |----|
9
口口口口 |①---|
口口口口 |----|
②①口口 |②---|
口口口口 |----|
10
口①②口 |①---|
口口口口 |----|
口口口口 |②---|
口口口口 |----|
11
口口口口 |①---|
口①②口 |----|
口口口口 |②---|
口口口口 |----|
12
口口口口 |①---|
口口口口 |----|
口①②口 |②---|
口口口口 |----|
13
口口口口 |①---|
口口口口 |----|
口口口口 |②---|
口①②口 |----|
14
口口口口 |①---|
口口口口 |----|
口①②口 |②---|
口口口口 |----|
15
口口口口 |①---|
口口口口 |----|
口口口① |----|
口口口口 |----|
16
口口口口 |----|
口①口口 |----|
口口口口 |①---|
口口口口 |----|
17
口口口口 |①---|
①口口口 |----|
口口口口 |----|
口口口口 |----|
18
口口口口 |----|
口口口口 |----|
口口①口 |①---|
口口口口 |----|
19
口口口口 |①---|
口口口口 |----|
②①口口 |②---|
口口口口 |----|
20
口口口口 |①---|
口口口口 |----|
口口口口 |②---|
①②口口 |----|
21
口口口口 |①---|
口口口口 |----|
口口口口 |②---|
口口①② |----|
22
口口口口 |①---|
口口口口 |----|
口①①口 |----|
口口口口 |----|
23
口口口口 |①---|
口口口口 |----|
口①②口 |②---|
口口口口 |----|
24
口口口口 |①---|
口口口口 |----|
口口口① |----|
口口口口 |----|
25
口口口口 |①---|
口②①口 |----|
口口口口 |②---|
口口口口 |----|
26
口口口口 |①---|
①口口口 |----|
口②口口 |②---|
口口口口 |----|
27
口口口口 |①---|
口②口口 |----|
口口①口 |②---|
口口口口 |----|
28
口口口口 |①---|
口口①口 |----|
口口口口 |----|
口口口口 |----|
29
口口口口 |----|
口口口口 |----|
口口口口 |----|
口口口口 |----|
30
口口口口 |----|
口口口口 |----|
口口①口 |①---|
口口口口 |----|
31
口口口口 |①---|
口口口口 |----|
口口口① |----|
口口口口 |----|
32
口口口口 |----|
口①口口 |----|
口口口口 |①---|
口口口口 |----|
33
口口口口 |①---|
①口口口 |----|
口口口口 |----|
口口口口 |----|
34
口口口口 |----|
①口口口 |----|
口口口口 |①---|
口口口口 |----|
35
口口口口 |①---|
口①②口 |----|
口口口口 |②---|
口口口口 |----|
36
口口口口 |①---|
口口口① |----|
口口口② |②---|
口口口口 |----|
37
口口口口 |①---|
口口口口 |----|
口②①口 |②---|
口口口口 |----|
38
口口口口 |①---|
口口口口 |----|
①口口口 |----|
口口口口 |----|
39
口口口口 |①---|
口口口口 |----|
口②口口 |②---|
口①口口 |----|
40
口口口口 |①---|
口①口口 |----|
口口口口 |----|
口口口口 |----|
41
口口口口 |①---|
口口口口 |----|
口口②口 |②---|
口口①口 |----|
42
口口②口 |①---|
口口①口 |----|
口口口口 |②---|
口口口口 |----|
43
口口口口 |①---|
口②口口 |----|
口①口口 |②---|
口口口口 |----|
44
口口口口 |----①-|
口②②口 |----|
口①①口 |②---|
口口口口 |----|
45
①口口① |①---|
口口口口 |----|
口口口口 |----|
口口口口 |----|
46
口口口口 |①---|
①口口① |----|
②口口② |②---|
口口口口 |----|
47
口口口口 |①---|
口口口口 |----|
口口口口 |----|
①口口① |----|
48
口口口口 |----|
口口口口 |----|
口口口口 |①---|
①②口口 |②---|
49
口口口口 |①---|
口口口口 |----|
口②口口 |----|
口口①口 |②---|
50
口④口口 |①---|
口②③口 |②---|
口口①口 |③---|
口口口口 |④---|
51
口口①口 |①---|
口口口口 |----|
口②②口 |②---|
口口口口 |----|
52
口口口口 |----|
口口口口 |----|
口口口口 |----|
口口口口 |----|
53
①口口① |①---|
口口口口 |----|
口口口口 |----|
口口口口 |----|
54
口口口口 |①---|
①口口① |----|
口②口口 |②---|
口口口口 |----|
55
口口口口 |①---|
口②②口 |----|
口口①口 |----|
口口口口 |②---|
56
②①①② |①---|
口口口口 |----|
口口口口 |②---|
口口口口 |----|
57
口口口口 |----|
①口口① |----|
口口口口 |①---|
口口口口 |----|
58
口口口口 |----|
口口口口 |----|
①口口① |①---|
口口口口 |----|
59
口口口口 |----|
口口口口 |----|
口口口口 |①---|
①口口① |----|
60
口口口口 |----|
口①①口 |----|
口口口口 |--①-|
口口口口 |----|
61
口口口口 |----|
口口口口 |----|
①口口口 |----|
口口口口 |①---|
62
口口口口 |①---|
口口口④ |②---|
口①②③ |③---|
口口口口 |④---|
63
口口口口 |①---|
③②①口 |②---|
口口口口 |③---|
口口口口 |----|
64
口口口口 |----|
口口口口 |----|
口口口口 |----|
口口口口 |----|
65
口口口口 |----|
口①①口 |----|
口口口口 |----|
口口口口 |①---|
66
口口口口 |----|
口口口口 |----|
口①①口 |--①-|
口口口口 |----|
67
口口口口 |----|
口口口口 |----|
口口口口 |----|
口口口口 |----|
68
口口口口 |----|
口口口口 |----|
口口②① |①---|
口口口口 |②---|
69
口口口口 |①---|
口口口口 |②---|
②①口口 |③---|
口③④口 |④---|
70
口口口口 |----|
①②③④ |----|
口口口口 |①-②-|
口口口口 |③-④-|


不确定度: 0

最終更新:2012年11月23日 02:20