Vermilion
Remo-con

ADVANCED

Level: 9
BPM: 143
Notes: 619

1
口口口口 |----|
口口口口 |----|
口口口口 |----|
口口口口 |----|
2
⑧口口② |①-②-|
③④⑦口 |③④-⑤|
口口口⑤ |-⑥-⑦|
①⑥⑨口 |⑧-⑨-|
3
⑧口口② |①-②-|
③④口⑨ |③④-⑤|
口口⑦⑤ |-⑥-⑦|
①⑥口口 |⑧-⑨-|
4
③②③② |①--②|
口③②口 |--③-|
口①口口
①口①口

口口口口
⑤口⑥⑤
⑥⑤④⑥ |-④--|
口④口④ |⑤-⑥-|
5
③①③① |①-②-|
⑤口口⑥ |③-④-|
口⑥⑤口 |⑤-⑥-|
②④②④ |----|
6
⑪口口② |①-②-|
⑨⑦⑥④ |③④⑤⑥|
③⑤⑧⑩ |⑦⑧⑨⑩|
①口口⑫ |⑪-⑫-|
7
⑪口口② |①-②-|
⑨⑦⑥④ |③④⑤⑥|
③⑤⑧⑩ |⑦⑧⑨⑩|
①口口⑫ |⑪-⑫-|
8
⑪口口② |①-②-|
⑨⑦⑥④ |③④⑤⑥|
③⑤⑧⑩ |⑦⑧⑨⑩|
①口口⑫ |⑪-⑫-|
9
⑬⑦②口 |①②③④|
⑤⑪⑩④ |⑤⑥⑦⑧|
③⑨⑫⑥ |⑨⑩⑪⑫|
口①⑧⑭ |⑬-⑭-|
10
⑪口口② |①-②-|
⑨⑦⑥④ |③④⑤⑥|
③⑤⑧⑩ |⑦⑧⑨⑩|
①口口⑫ |⑪-⑫-|
11
⑪口口② |①-②-|
⑨⑦⑥④ |③④⑤⑥|
③⑤⑧⑩ |⑦⑧⑨⑩|
①口口⑫ |⑪-⑫-|
12
⑪口口② |①-②-|
⑨⑦⑥④ |③④⑤⑥|
③⑤⑧⑩ |⑦⑧⑨⑩|
①口口⑫ |⑪-⑫-|
13
④口口口 |①-②-|
口⑤⑤② |③-④-|
口③③口 |⑤-⑥-|
⑥①①⑥ |----|
14
⑨口口④ |①-②-|
⑪⑦⑥② |③④⑤⑥|
①⑤⑧⑫ |⑦⑧⑨⑩|
③口口⑩ |⑪-⑫-|
15
⑨口口④ |①-②-|
⑪⑦⑥② |③④⑤⑥|
①⑤⑧⑫ |⑦⑧⑨⑩|
③口口⑩ |⑪-⑫-|
16
⑨口口④ |①-②-|
⑪⑦⑥② |③④⑤⑥|
①⑤⑧⑫ |⑦⑧⑨⑩|
③口口⑩ |⑪-⑫-|
17
⑨口口④ |①-②-|
⑪⑦⑥② |③④⑤⑥|
①⑤⑧⑫ |⑦⑧⑨⑩|
③口口⑩ |⑪-⑫-|
18
口①①口 |①-②-|
⑤③④⑥ |③-④-|
⑥④③⑤ |⑤-⑥-|
口②②口 |----|
19
口②②口 |①-②-|
⑥④③⑤ |③-④-|
⑤③④⑥ |⑤-⑥-|
口①①口 |----|
20
口⑧④口 |①-②-|
⑦③⑦③ |③-④-|
口⑥②口 |⑤-⑥-|
⑤①⑤① |⑦-⑧-|
21
口⑦⑧口 |①-②-|
④⑤⑥① |③-④-|
口⑧⑦口 |⑤-⑥-|
②⑥⑤③ |⑦-⑧-|
22
⑧口口② |①-②-|
③④⑦口 |③④-⑤|
口口口⑤ |-⑥-⑦|
①⑥⑨口 |⑧-⑨-|
23
⑧口⑨② |①-②-|
③④⑦⑤ |③④-⑤|
①⑥口口 |-⑥-⑦|
口口口口 |⑧-⑨-|
24
⑧口口② |①-②-|
③④⑦口 |③④-⑤|
口口口⑤ |-⑥-⑦|
①⑥⑨口 |⑧-⑨-|
25
⑧口⑨② |①-②-|
③④⑦⑤ |③④-⑤|
①⑥口口 |-⑥-⑦|
口口口口 |⑧-⑨-|
26
口口口口 |①-②-|
②口口⑤ |③④-⑤|
口③④口
①口口口

口口口口
⑨口口口
口口口⑧ |-⑥-⑦|
口⑦口⑥ |⑧-⑨-|
27
②⑨口⑤ |①-②-|
口③④⑧ |③④-⑤|
①口口⑥ |-⑥-⑦|
口⑦口口 |⑧-⑨-|
28
口口口口 |①-②-|
②口口⑤ |③④-⑤|
口③④口
①口口口

口口口口
⑨口口口
口口口⑧ |-⑥-⑦|
口⑦口⑥ |⑧-⑨-|
29
②⑨口⑤ |①-②-|
口③④⑧ |③④-⑤|
①口口⑥ |-⑥-⑦|
口⑦口口 |⑧-⑨-|
30
⑧口口② |①-②-|
③④⑦口 |③④-⑤|
口口口⑤ |-⑥-⑦|
①⑥⑨口 |⑧-⑨-|
31
⑧口⑨② |①-②-|
③④⑦⑤ |③④-⑤|
①⑥口口 |-⑥-⑦|
口口口口 |⑧-⑨-|
32
口口口② |①---|
口③口口 |--②-|
④口②口 |-③--|
①⑤口口 |④-⑤-|
33
口①口① |----|
口口②口 |--①-|
③口口① |-②--|
口④口口 |③-④-|
34
口口口口 |①-②-|
②口口⑤ |③④-⑤|
口③④口
①口口口

口口口口
⑨口口口
口口口⑧ |-⑥-⑦|
口⑦口⑥ |⑧-⑨-|
35
②⑨口⑤ |①-②-|
口③④⑧ |③④-⑤|
①口口⑥ |-⑥-⑦|
口⑦口口 |⑧-⑨-|
36
口口③④ |①-②-|
②口⑨⑥ |③④-⑤|
⑧①①口 |-⑥-⑦|
⑤口口⑦ |⑧-⑨-|
37
口口③④ |①-②-|
②口口口 |③④-⑤|
口①①口
⑤口口口

口口口口
口口⑨⑥
口⑧口口 |-⑥-⑦|
口口口⑦ |⑧-⑨-|
38
⑤口④② |①-②-|
口③口口 |③④-⑤|
①口口①
口口口口

口口口口
口口口⑥
⑦口口⑨ |-⑥-⑦|
口⑧口口 |⑧-⑨-|
39
③②③② |①--②|
口③②口 |--③-|
口①口口
①口①口

口口口口
⑤口⑥⑤
⑥⑤④⑥ |-④--|
口④口④ |⑤-⑥-|
40
④②口③ |①---|
口①口口 |②---|
⑤口②⑤ |③--④|
③口①④ |--⑤-|
41
⑥⑥⑥⑥ |①--②|
④④③③ |-③-④|
口①①口 |-⑤--|
②②⑤⑤ |⑥---|
42
④口口③ |①---|
口②①口 |②---|
⑤口口⑤ |③--④|
③①②④ |--⑤-|
43
口①口口 |①②③-|
口②④口 |④⑤⑥-|
口③⑤口
口口⑥口

⑦⑩⑩⑦
⑧口口⑧
⑨口口⑨ |⑦⑧⑨-|
口口口口 |⑩---|
44
口口⑥④ |①-②-|
⑤③⑨口 |③④-⑤|
口口②⑦ |-⑥-⑦|
①⑧口口 |⑧-⑨-|
45
口口⑥④ |①-②-|
⑤③⑨口 |③④-⑤|
口口②⑦ |-⑥-⑦|
①⑧口口 |⑧-⑨-|
46
口口⑥④ |①-②-|
⑤③⑨口 |③④-⑤|
口口②⑦ |-⑥-⑦|
①⑧口口 |⑧-⑨-|
47
⑦口⑦④ |①-②-|
⑤③口⑥ |③④-⑤|
口口②口 |⑥---|
①口口⑥ |⑦---|
48
口①口⑤ |①②③④|
口②口⑥ |⑤⑥⑦⑧|
口③口⑦
口④口⑧

⑨口口⑭
⑩⑬口口
⑪口口口 |⑨⑩⑪⑫|
⑫口口口 |⑬-⑭-|
49
⑤口①口 |①②③④|
⑥口②口 |⑤⑥⑦⑧|
⑦口③口
⑧口④口

⑭口口⑨
口口⑬⑩
口口口⑪ |⑨⑩⑪⑫|
口口口⑫ |⑬-⑭-|
50
⑨①口⑤ |①②③④|
⑩②⑬⑥ |⑤⑥⑦⑧|
⑪③⑭⑦ |⑨⑩⑪⑫|
⑫④口⑧ |⑬-⑭-|
51
③⑤口口 |①-②-|
口⑥口② |③-④-|
④口口⑦ |⑤-⑥-|
口①⑦⑧ |⑦-⑧-|
52
③⑦②⑥ |①②③④|
⑪⑬⑩⑭ |⑤⑥⑦⑧|
①⑤④⑧ |⑨⑩⑪⑫|
口⑨口⑫ |⑬-⑭-|
53
③⑦②⑥ |①②③④|
⑪⑬⑩⑭ |⑤⑥⑦⑧|
①⑤④⑧ |⑨⑩⑪⑫|
口⑨口⑫ |⑬-⑭-|
54
③⑦②⑥ |①②③④|
⑪⑬⑩⑭ |⑤⑥⑦⑧|
①⑤④⑧ |⑨⑩⑪⑫|
口⑨口⑫ |⑬-⑭-|
55
③②③② |①--②|
口③②口 |--③-|
口①口口
①口①口

口口口口
⑤口⑥⑤
⑥⑤④⑥ |-④--|
口④口④ |⑤-⑥-|
56
③①③① |①-②-|
⑤⑦⑧⑥ |③-④-|
⑧⑥⑤⑦ |⑤-⑥-|
②④②④ |⑦-⑧-|


不确定度: 0

タグ:

+ タグ編集
  • タグ:

このサイトはreCAPTCHAによって保護されており、Googleの プライバシーポリシー利用規約 が適用されます。

最終更新:2012年11月27日 22:26