キミ、メグル、ボク

ADVANCED

Level: 4
BPM: 144
Notes: 270

1
口口口口 |----|
口口口口 |----|
口口口口 |----|
口口口口 |----|
2
口口口口 |①---|
口口口口 |②---|
口①①口 |----|
②③③口 |--③-|
3
口口口口 |----|
口口口口 |①---|
口口口口 |----|
①口口口 |----|
4
口口口口 |----|
口口口口 |①---|
口口口口 |----|
①口②② |--②-|
5
口口口口 |--①-|
口口口口 |②---|
口③①① |----|
②口口口 |③---|
6
口口口口 |①---|
口⑤⑥口 |②---|
口③④口 |③-④-|
①口口② |⑤-⑥-|
7
口口口口 |----|
④口口⑤ |①---|
②口口③ |②-③-|
口口①口 |④-⑤-|
8
口口口口 |----|
口④⑤口 |①---|
口②③口 |②-③-|
口口口① |④-⑤-|
9
口口口口 |----|
④口口⑤ |①---|
②口口③ |②-③-|
口口①口 |④-⑤-|
10
口口口口 |----|
口④⑤口 |①---|
口②③口 |②-③-|
口口口① |④-⑤-|
11
口口口口 |----|
④口口⑤ |①---|
②口口③ |②-③-|
口口①口 |④-⑤-|
12
口口口口 |----|
口④⑤口 |①---|
口②③口 |②-③-|
口口口① |④-⑤-|
13
口口口口 |----|
④口口⑤ |①---|
②口口③ |②-③-|
口口①口 |④-⑤-|
14
④口口④ |----|
口③口口 |--①-|
口口②口 |②-③-|
口①口口 |--④-|
15
口口口口 |----|
口口口口 |----|
口口口口 |----|
口口口口 |----|
16
④口口④ |----|
口口③口 |--①-|
口②口口 |②-③-|
口口①口 |--④-|
17
口口口口 |----|
口口口口 |----|
口口口口 |----|
口口口口 |----|
18
口口口口 |----|
口①②口 |--①-|
口口③口 |②-③-|
④口口口 |--④-|
19
④口口③ |--①-|
②口口口 |--②-|
口口口① |--③-|
口口口口 |--④-|
20
口口口口 |----|
口②口口 |----|
口①①口 |①---|
口口口口 |--②-|
21
口口口口 |①---|
③口①③ |----|
②口口② |②---|
口口口口 |③---|
22
口口口口 |①-②-|
口①②口 |----|
口口口口 |----|
口③口口 |--③-|
23
口⑥口口 |①-②-|
⑦④⑤⑦ |③-④-|
口②③口 |⑤-⑥-|
口口①口 |--⑦-|
24
口口口口 |----|
口口口口 |----|
口口口口 |----|
口①口口 |--①-|
25
口口口口 |①-②-|
口④口口 |③-④-|
⑥②③⑥ |--⑤-|
⑤口①⑤ |--⑥-|
26
②③④⑤ |----|
①口口口 |--①-|
口口口口 |②-③-|
口口口口 |④-⑤-|
27
口口口口 |①---|
口口口① |②-③-|
口②③口 |----|
口⑤④口 |④-⑤-|
28
口口口口 |----|
口口口口 |①---|
口①①口 |----|
口口口口 |----|
29
口口口口 |----|
口口口口 |----|
口口口口 |----|
口口口口 |----|
30
④口口④ |----|
口③口口 |--①-|
口口②口 |②-③-|
口①口口 |--④-|
31
口口口口 |----|
口口口口 |----|
口口口口 |----|
口口口口 |----|
32
口④口口 |----|
口口③口 |----|
口②口口 |①-②-|
口口①口 |③-④-|
33
口口口口 |--①-|
①②口口 |②---|
口口口口 |----|
口口口口 |----|
34
口口口口 |----|
口口口口 |--①-|
口口口口 |②-③-|
④①②③ |--④-|
35
④口口③ |--①-|
②口口口 |--②-|
口口口① |--③-|
口口口口 |--④-|
36
口口口口 |----|
口口口口 |----|
口①①口 |①---|
口②口口 |--②-|
37
口口口口 |①---|
口④口口 |--②-|
口③②口 |③---|
口口①口 |④---|
38
口①②口 |①-②-|
口口口口 |----|
口口口口 |----|
口③口口 |--③-|
39
口④⑤口 |①-②-|
口③口口 |--③-|
口②口口 |--④-|
口口①口 |--⑤-|
40
口口口口 |----|
口口口口 |----|
口口口口 |----|
口①口口 |--①-|
41
口④口口 |①-②-|
口③⑤口 |--③-|
口②口口 |--④-|
口口①口 |--⑤-|
42
口口口口 |①---|
口口口① |②-③-|
口口③② |----|
④⑤口口 |④-⑤-|
43
口口口口 |①---|
口④⑤口 |②-③-|
口③②口 |----|
口口①口 |④-⑤-|
44
口口口口 |----①-|
口⑤口口 |--②---|
口③④口 |③---④-|
口①②口 |--⑤---|
45
①口口① |①---|
口③④口 |----|
口②口口 |--②-|
口口口口 |③-④-|
46
口口口口 |----|
④口口口 |①-②-|
③口口口 |--③-|
口②①口 |--④-|
47
口口口口 |----|
口口口口 |----|
口口口口 |----|
口口口口 |----|
48
口口口口 |----|
口①口口 |--①-|
口口②③ |--②-|
口口口口 |--③-|
49
口口口口 |----|
口口口口 |----|
口口口口 |----|
口②①口 |①-②-|
50
口口口口 |--①-|
口②③口 |--②-|
①④⑤口 |③---|
口口口口 |④-⑤-|
51
口口口口 |①---|
口口口口 |--②-|
口口口① |----|
口口②口 |----|
52
口①口口 |----|
口口口口 |----|
口口口口 |----|
口口口口 |--①-|
53
口口①口 |①---|
口③④口 |----|
口②口口 |--②-|
口口口口 |③-④-|
54
口④口口 |----|
口口口口 |①-②-|
③口口口 |--③-|
口②①口 |--④-|
55
口口口口 |----|
口①②③ |----|
口口口口 |--①-|
口口口口 |②-③-|
56
口口口口 |----|
口口口口 |----|
③口口口 |①-②-|
口②①口 |--③-|
57
口口口口 |----|
①②③口 |--①-|
口口口口 |--②-|
口口口口 |--③-|
58
口口口口 |----|
口④④口 |--①-|
口①口③ |②-③-|
口口②口 |--④-|
59
口①①口 |----|
口口口口 |--①-|
口口口口 |----|
口口口口 |----|
60
口口口口 |----|
口口口口 |----|
口口口口 |--①-|
口①②口 |--②-|
61
口口口口 |--①-|
口口口口 |②---|
口③④口 |----|
①口口② |③-④-|
62
口④⑤⑥ |①---|
口口③② |②-③-|
口口口① |--④-|
口口口口 |⑤-⑥-|
63
口口口口 |----|
口④⑤口 |①---|
口②③口 |②-③-|
口口口① |④-⑤-|
64
口口口口 |----|
④口口⑤ |①---|
②口口③ |②-③-|
口口①口 |④-⑤-|
65
口口口口 |----|
口④⑤口 |①---|
口②③口 |②-③-|
口口口① |④-⑤-|
66
口口口口 |----|
④口口⑤ |①---|
②口口③ |②-③-|
口口①口 |④-⑤-|
67
口口口口 |----|
口④⑤口 |①---|
口②③口 |②-③-|
口口口① |④-⑤-|
68
口口口口 |----|
④口口⑤ |①---|
②口口③ |②-③-|
口口①口 |④-⑤-|
69
口口口口 |----|
口④⑤口 |①---|
口②③口 |②-③-|
口口口① |④-⑤-|
70
口②②口 |----|
①③③① |①---|
口④④口 |②-③-|
口⑤⑤口 |④-⑤-|


不确定度: 0

最終更新:2012年11月23日 02:19