キミ、メグル、ボク

EXTREME

Level: 6
BPM: 144
Notes: 389

1
口口口口 |----|
口口口口 |----|
口口口口 |----|
口口口口 |----|
2
口口口口 |①---|
口口口口 |②---|
①①①① |----|
②③③口 |--③-|
3
口口口口 |----|
口口口口 |①---|
口口口口 |----|
①口口口 |----|
4
口口口口 |----|
口口口口 |①---|
②②口口 |----|
①口口口 |--②-|
5
口口口口 |--①-|
口口①① |②---|
③③口口 |----|
②口口口 |③---|
6
口口⑥⑥ |①---|
口口④⑤ |②---|
④④③口 |③-④-|
口口①② |⑤-⑥-|
7
①①⑥⑥ |①---|
口口④⑤ |②---|
口口③口 |③-④-|
口口口② |⑤-⑥-|
8
口口⑤⑤ |----|
口口③④ |①---|
⑤口②口 |②-③-|
③④口① |④-⑤-|
9
⑥⑧⑧⑧ |①-②-|
②④⑥⑦ |③-④-|
口①⑤口 |⑤-⑥-|
口口口③ |⑦-⑧-|
10
口口⑤⑤ |----|
口口③④ |①---|
口口②口 |②-③-|
口口口① |④-⑤-|
11
口口⑤⑤ |----|
口口③④ |①---|
口口②口 |②-③-|
口口口① |④-⑤-|
12
口口⑤⑤ |----|
口口③④ |①---|
口口②口 |②-③-|
口口口① |④-⑤-|
13
口口口⑧ |--①-|
口⑤⑥⑦ |②-③-|
口口③④ |④-⑤⑥|
口口①② |⑦-⑧-|
14
①口口口 |①---|
口口口口 |--②-|
口口口口
②②口口

⑤口口⑤
④④口口
口口③③ |③-④-|
口口口口 |--⑤-|
15
口口口口 |----|
口口口口 |----|
口口口口 |----|
口口口口 |----|
16
④口口④ |----|
口口③③ |--①-|
②②口口 |②-③-|
口口①① |--④-|
17
口口口口 |----|
口口口口 |----|
口口口口 |----|
口口口口 |----|
18
口口口口 |----|
口口③口 |--①-|
口②口口 |②-③-|
④口①④ |--④-|
19
③口口③ |--①-|
②④④② |--②-|
①口口① |--③-|
口口口口 |--④-|
20
口口口口 |----|
口②口口 |----|
口①①口 |①---|
口口口口 |--②-|
21
口口口口 |①---|
②口①② |----|
③口口③ |②---|
口口口口 |③---|
22
口口口口 |①-②-|
口口口口 |----|
口口口口 |----|
③①②口 |--③-|
23
⑥口口口 |①-②-|
④⑦⑦⑤ |③-④-|
②口口③ |⑤-⑥-|
口口口① |--⑦-|
24
口口口口 |----|
口口口口 |----|
口口口口 |----|
①口口口 |--①-|
25
口口口口 |①-②-|
④⑥⑥口 |③-④-|
②⑤⑤③ |--⑤-|
口口口① |--⑥-|
26
②③④⑤ |----|
①口口口 |--①-|
口口口口 |②-③-|
口口口口 |④-⑤-|
27
口口口口 |①---|
口口口① |②-③-|
口②③口 |----|
口⑤④口 |④-⑤-|
28
口口口口 |----|
口口口口 |①---|
口①①口 |----|
口口口口 |----|
29
口口口口 |----|
口口口口 |----|
口口口口 |----|
口口口口 |----|
30
④口口④ |----|
③③口口 |--①-|
口口②② |②-③-|
①①口口 |--④-|
31
口口口口 |----|
口口口口 |----|
口口口口 |----|
口口口口 |----|
32
④④口口 |----|
口口③③ |----|
②②口口 |①-②-|
口口①① |③-④-|
33
口口口口 |--①-|
①②口口 |②---|
口口口口 |----|
口口口口 |----|
34
口口口口 |----|
口③口口 |--①-|
口口②口 |②-③-|
④①口④ |--④-|
35
③口口③ |--①-|
②④④② |--②-|
①口口① |--③-|
口口口口 |--④-|
36
口口口口 |----|
口②口口 |----|
口①①口 |①---|
口口口口 |--②-|
37
口口口口 |①---|
口口①口 |--②-|
口④口口 |③---|
口②③口 |④---|
38
口口口口 |①-②-|
口①②口 |----|
口口口口 |----|
③口口口 |--③-|
39
④⑤口口 |①-②-|
③口口口 |--③-|
②口口口 |--④-|
口口口① |--⑤-|
40
口口口口 |----|
口口口口 |----|
口口口口 |----|
①口口口 |--①-|
41
④⑤口口 |①-②-|
③口口口 |--③-|
②口口口 |--④-|
口口口① |--⑤-|
42
口口①口 |①---|
口③②口 |②-③-|
口口口口 |----|
④⑤口口 |④-⑤-|
43
口口口口 |①---|
口④⑤口 |②-③-|
口③②口 |----|
口口①口 |④-⑤-|
44
④⑤口口 |----①-|
③⑤口口 |--②---|
②④口口 |③---④-|
①③②① |--⑤---|
45
口口①④ |①---|
口口①③ |----|
口口②② |--②-|
口口口口 |③-④-|
46
口口口口 |----|
④口口④ |①-②-|
③口口③ |--③-|
②①①② |--④-|
47
口口口口 |----|
口口口口 |----|
口口口口 |----|
口口口口 |----|
48
口②口口 |----|
①口③口 |--①-|
口②口口 |--②-|
①口③口 |--③-|
49
口口口口 |----|
口口口口 |----|
口口口② |----|
口口口① |①-②-|
50
④⑤口口 |--①-|
①口口① |--②-|
口口③口 |③---|
口口②口 |④-⑤-|
51
口口①口 |①---|
口②②口 |--②-|
口③③口 |③---|
口口口口 |----|
52
口④⑤口 |①---|
⑩⑥⑦⑩ |②-③-|
口⑧⑨① |④⑤⑥⑦|
②③口① |⑧⑨⑩-|
53
①口口① |①---|
口口口口 |----|
口口口口
口口口口

口口④④
口口③③
口口②② |--②-|
口口口口 |③-④-|
54
④口口④ |----|
③口口③ |①-②-|
②②口口 |--③-|
口口①① |--④-|
55
口口口口 |----|
口①②③ |----|
口①②③ |--①-|
口口口口 |②-③-|
56
口口口口 |----|
口③③口 |----|
口口②口 |①-②-|
口①口口 |--③-|
57
③口口口 |----|
②口口① |--①-|
①口口② |--②-|
口口口③ |--③-|
58
口口口口 |----|
④①②④ |--①-|
口口③口 |②-③-|
④口口④ |--④-|
59
①口口① |----|
口口口口 |--①-|
①口口① |----|
口口口口 |----|
60
口口口① |----|
口口口口 |----|
口②口口 |--①-|
口口口口 |--②-|
61
口口口口 |--①-|
①口口口 |②---|
口口②口 |----|
③④口口 |③-④-|
62
口口口口 |①---|
②③口口 |②-③-|
①口口口
口口口口

口口口口
口口口口
⑤⑥口口 |--④-|
口④口口 |⑤-⑥-|
63
口口⑥⑥ |①---|
口口④⑤ |②---|
口口③口 |③-④-|
口口①② |⑤-⑥-|
64
口口⑤⑤ |----|
口口③④ |①---|
口口②口 |②-③-|
口口口① |④-⑤-|
65
口口⑥⑥ |----|
口口③⑤ |①---|
④④②口 |②-③④|
口口口① |⑤-⑥-|
66
⑤⑤⑤⑤ |----|
③③③④ |①---|
口口②口 |②-③-|
口口口① |④-⑤-|
67
口口⑤⑤ |----|
口口③④ |①---|
口口②口 |②-③-|
口口口① |④-⑤-|
68
口口⑥⑥ |----|
⑥口④⑤ |①-②-|
④口③口 |③-④-|
②③口① |⑤-⑥-|
69
③⑤⑦⑦ |--①-|
口①⑤⑥ |②-③-|
口口④口 |④-⑤-|
口口口② |⑥-⑦-|
70
口口口口 |----|
②⑤⑤② |①---|
③⑤⑤③ |②-③-|
④①①④ |④-⑤-|


不确定度: 0

最終更新:2012年11月23日 02:19