ET-KING

BASIC

Level: 3
BPM: 145
Notes: 208

1
口口口口 |----|
口口口口 |----|
口口口口 |----|
口口口口 |----|
2
口口口口 |①---|
口口口口 |----|
口①②口 |②---|
口口口口 |----|
3
口④③② |①---|
口口口口 |----|
口口口① |--②-|
口口口口 |③-④-|
4
口口口口 |①---|
口②①口 |----|
口口口口 |②---|
口口口口 |----|
5
口口口口 |①---|
①②口口 |----|
口口口口 |----|
口口口口 |--②-|
6
口口口口 |----|
口口①口 |----|
口口口口 |----|
口口口口 |--①-|
7
口口口口 |----|
口口口口 |----|
口口口口 |----|
口口口口 |----|
8
口口口口 |①---|
①口口② |----|
口口口口 |②---|
口口口口 |----|
9
口口口口 |①---|
口口口口 |----|
口①②口 |②---|
口口口口 |----|
10
口口口口 |①---|
口①①口 |----|
口口口口 |----|
口口口口 |----|
11
口①①口 |①---|
口口口口 |----|
口口口口 |----|
口口口口 |----|
12
口口口口 |①---|
口口口口 |----|
口口口口 |----|
口①①口 |----|
13
口口口口 |①---|
口口口口 |----|
口①①口 |----|
口口口口 |----|
14
口口口口 |①---|
口①①口 |----|
口①①口 |----|
口口口口 |----|
15
口③口口 |①---|
口②口口 |②---|
口①口口 |③---|
口口口口 |----|
16
口口③口 |①---|
口口②口 |②---|
口口①口 |③---|
口口口口 |----|
17
口口口口 |①---|
①口口② |----|
口口口口 |②---|
口口口口 |----|
18
口③口口 |①---|
口②口口 |②---|
口①④口 |③---|
口口口口 |④---|
19
口口②口 |①---|
口口①口 |②---|
口③③口 |----|
口口口口 |③---|
20
口口口口 |①---|
口①①口 |----|
口②口口 |②---|
口口口口 |----|
21
口口口口 |①---|
口口口口 |----|
口口①口 |②---|
口②②口 |----|
22
④口口④ |①---|
③口口③ |②---|
②口口② |③---|
①口口① |④---|
23
口口口口 |----|
口①②口 |①---|
口口口口 |----|
口口口口 |②---|
24
口口口② |----|
口口口① |----|
口口口口 |①---|
口口口口 |②---|
25
②③③口 |①---|
①口口口 |②---|
口口口口 |③---|
口口口口 |----|
26
口口口口 |①---|
口①①口 |----|
口②②口 |②---|
口③③口 |③---|
27
口①②口 |----|
口口口口 |①---|
口口口口 |②---|
口口口口 |----|
28
口口口口 |①---|
口①①口 |②---|
口②②口 |③---|
口③③口 |----|
29
口口口口 |①---|
口口口口 |----|
口口口口 |②---|
①口口② |----|
30
口③③口 |①---|
口②②口 |②---|
口①①口 |③---|
口口口口 |----|
31
口口口口 |①---|
①口口② |②---|
③口口④ |③---|
口口口口 |④---|
32
口⑤口口 |①-②-|
口①②口 |③-④-|
口③④口 |----|
口口口口 |⑤---|
33
口口①口 |①---|
口②口口 |----|
口③口口 |②---|
口口口口 |③---|
34
口口口口 |①---|
口④④口 |②---|
①口②③ |③---|
口口口口 |④---|
35
口①②口 |①---|
口口④口 |②---|
口口③口 |③---|
口口口口 |④---|
36
口①①口 |①---|
口②口口 |②---|
口③口口 |③---|
口④④口 |④---|
37
口口口口 |①---|
②口口② |----|
①口口① |----|
口口口口 |②---|
38
口口口口 |①---|
口①②口 |②---|
口③④口 |③---|
口口口口 |④---|
39
口①①口 |--①-|
口②②口 |----|
口口口口 |②---|
口③口口 |--③-|
40
口②口口 |--①-|
口口口口 |----|
口口口口 |--②-|
口口①口 |----|
41
口口①口 |①---|
口口口口 |--②-|
口②②口 |--③-|
口③③口 |----|
42
口口口口 |----|
②口口③ |①---|
①口口① |②---|
口口口口 |③---|
43
口②②口 |①---|
口①①口 |②---|
口口口口 |----|
口口口口 |----|
44
口口口口 |①---|
③②①口 |②---|
口口口口 |③---|
口口口口 |----|
45
口口口口 |①---|
口口口口 |②---|
口①②③ |③---|
口口口口 |----|
46
口口口口 |①---|
③②①口 |②---|
口口口口 |③---|
口口口口 |----|
47
口口口口 |①---|
口口口口 |②---|
口①②③ |③---|
口口口口 |----|
48
口口口口 |①---|
口①①口 |----|
口①①口 |----|
口口口口 |----|
49
口口口口 |①---|
口①①口 |----|
口①①口 |----|
口口口口 |----|
50
口口口口 |①---|
口口口口 |----|
①口口② |②---|
口口口口 |----|
51
口③③口 |①---|
口②②口 |②---|
口①①口 |③---|
口口口口 |----|
52
口口口口 |①---|
③②①口 |②---|
口口口口 |③---|
口口口口 |----|
53
口①②③ |①---|
口口口口 |②---|
口口口口 |③---|
口口口口 |----|
54
口口口口 |①---|
口口口口 |②---|
③②①口 |③---|
口口口口 |----|
55
口口口口 |①---|
口①②③ |②---|
口口口口 |③---|
口口口口 |----|
56
口口口口 |①---|
口①①口 |----|
口①①口 |----|
口口口口 |----|
57
口口口口 |①---|
口①①口 |----|
口①①口 |----|
口口口口 |----|
58
口口口口 |①---|
①口口② |----|
口口口口 |②---|
口口口口 |----|
59
口①①口 |①---|
口②②口 |②---|
口③③口 |③---|
口④④口 |④---|
60
口口口口 |①---|
口口口口 |----|
口口口口 |----|
①口口① |----|
61
口口口口 |----|
②口口② |----|
①口口① |①---|
口口口口 |②---|
62
①口口① |①---|
口口口口 |----|
口口口口 |----|
口口口口 |----|


不确定度: 0

最終更新:2012年11月23日 02:17