ET-KING

ADVANCED

Level: 5
BPM: 145
Notes: 403

1
口口口口 |----|
口口口口 |----|
口口口口 |----|
口口口口 |----|
2
口口口口 |①---|
口口口口 |----|
口②口口 |②---|
①口口口 |----|
3
口口口口 |①---|
口口①口 |----|
口口口口 |--②-|
口④③② |③-④-|
4
口口口口 |①---|
口②口口 |----|
①口口口 |②---|
口口口口 |----|
5
口口①口 |①---|
②③④口 |----|
口口口口 |--②-|
口口口口 |③-④-|
6
口口口① |--①-|
口口口口 |----|
口口口口 |--②-|
口④③② |③-④-|
7
②②②② |--①-|
口口口口 |----|
①口口口 |----|
口口口口 |--②-|
8
口口口口 |----|
口口①① |①---|
②②口口 |②---|
口口③③ |③---|
9
①①①① |①---|
口口口口 |----|
②②②② |②---|
口口口口 |----|
10
口①②口 |①-②-|
口口口③ |--③-|
⑥⑤④口 |--④-|
口口口口 |⑤-⑥-|
11
口口口口 |--①-|
口口口口 |②-③-|
⑤④口口 |--④-|
口①②③ |⑤---|
12
口①②口 |①-②-|
口口口③ |--③-|
⑥⑤④口 |--④-|
口口口口 |⑤-⑥-|
13
口①口口 |----|
口①口口 |----|
口口口口 |----|
口口口口 |--①-|
14
②③①口 |①---|
口口①口 |----|
口口口口 |----|
口口口口 |②-③-|
15
口口①② |①-②-|
口⑤④③ |③-④-|
口口⑦⑥ |⑤---|
口口口口 |⑥-⑦-|
16
⑥口口口 |①-②-|
口口口口 |③-④-|
②①口口 |⑤---|
③④⑤口 |--⑥-|
17
口①②③ |①-②-|
⑦⑥⑤④ |③-④-|
⑧口口口 |⑤-⑥-|
口口口口 |⑦-⑧-|
18
口口口口 |①-②-|
口口口口 |③-④-|
⑧①②③ |⑤-⑥-|
⑦⑥⑤④ |⑦-⑧-|
19
②③口口 |①-②-|
①口口口 |③---|
口④④口 |----|
口口口口 |④---|
20
⑤④③② |①---|
口①①口 |----|
口口口口 |②-③-|
口口口口 |④-⑤-|
21
口口口口 |①---|
①口口口 |②-③-|
口口⑦⑥ |④-⑤-|
②③④⑤ |⑥-⑦-|
22
口口口⑦ |①-②-|
③④⑤⑥ |③-④-|
②①口口 |⑤-⑥-|
口口口口 |⑦---|
23
③②①口 |----|
口④⑤口 |①-②-|
口口口口 |③---|
口口口口 |④-⑤-|
24
口口口口 |①---|
口口口① |----|
④③②口 |②-③-|
口口口口 |④---|
25
口口口口 |①-②-|
⑧口口口 |③-④-|
⑦⑥⑤④ |⑤-⑥-|
口①②③ |⑦-⑧-|
26
⑦⑥⑤④ |①-②-|
口①②③ |③-④-|
口口口口 |⑤-⑥-|
口口口口 |⑦---|
27
④③②① |--①-|
⑤⑥⑦口 |②-③-|
口口口口 |④-⑤-|
口口口口 |⑥-⑦-|
28
⑥口口口 |①-②-|
口口口① |③-④-|
⑤④③② |⑤---|
口口口口 |--⑥-|
29
口①②③ |①-②-|
⑦⑥⑤④ |③-④-|
⑧口口口 |⑤-⑥-|
口口口口 |⑦-⑧-|
30
口口口口 |①-②-|
口⑥⑥口 |③-④-|
口①②③ |⑤---|
口口⑤④ |⑥---|
31
①口口② |①---|
①口口② |②---|
③口口④ |③---|
③口口④ |④---|
32
口④④口 |①-②-|
⑦③③口 |③-④-|
⑥②②口 |--⑤-|
⑤①①口 |⑥-⑦-|
33
⑥⑦口② |①-②-|
口口口① |--③-|
口口口口 |④-⑤-|
口⑤④③ |⑥-⑦-|
34
口口①② |①-②-|
③④⑤⑥ |③-④-|
⑧口口⑧ |⑤-⑥-|
⑦口口⑦ |⑦-⑧-|
35
⑤⑥⑦⑧ |①-②-|
口口口口 |③-④-|
口①②口 |⑤-⑥-|
口③④口 |⑦-⑧-|
36
口口口口 |①-②-|
口口②① |③-④-|
③④⑤⑥ |⑤-⑥-|
口口⑧⑦ |⑦-⑧-|
37
②②口口 |①---|
①①口口 |②---|
口⑤④口 |--③-|
口口③口 |④-⑤-|
38
口④④口 |①---|
口③③口 |②---|
②口口① |③---|
口口口口 |④---|
39
①口口① |--①-|
口口口口 |----|
②②②② |②---|
③③③③ |--③-|
40
口口口口 |----|
口口口口 |----|
口口口口 |--①-|
①口口① |----|
41
口口口口 |①---|
②②②② |--②-|
①①①① |----|
口口口口 |----|
42
口口口口 |----|
③①①③ |①---|
②①①② |②---|
口口口口 |③---|
43
口①②口 |①②③④|
口③④口 |⑤---|
口⑤口口 |----|
⑥口口⑥ |--⑥-|
44
口③③口 |----|
口②②口 |①---|
口①①口 |②---|
口口口口 |③---|
45
口口口口 |①---|
口②②口 |②---|
②①①②
①口口①

口③③口
③口口③
口口口口 |③---|
④口口④ |--④-|
46
口③③口 |----|
口②②口 |①---|
口①①口 |②---|
口口口口 |③---|
47
口③③口 |①---|
③②②③ |②---|
②①①② |③---|
①④口① |--④-|
48
口口口④ |--①-|
口口口③ |②-③-|
口口口② |④---|
⑤口口① |--⑤-|
49
⑤口④口 |--①-|
口口③口 |②-③-|
口口②口 |④---|
口口①口 |--⑤-|
50
口口口口 |----|
口①口口 |①---|
②口口口 |②---|
口③口口 |③---|
51
口⑥口⑦ |①-②-|
口④⑤口 |③-④-|
口②③口 |⑤-⑥-|
口口①口 |--⑦-|
52
口口①口 |--①-|
口②③口 |②-③-|
口④⑤口 |④-⑤-|
口⑥⑦口 |⑥-⑦-|
53
③口④③ |①---|
②口口② |②---|
①口口① |③---|
口口口口 |--④-|
54
口口口口 |①-②-|
口①②口 |③-④-|
⑥③④⑥ |⑤---|
⑤口⑦⑤ |⑥-⑦-|
55
口⑤口口 |①-②-|
口③④口 |③-④-|
口①②口 |⑤---|
⑥⑥⑥⑥ |--⑥-|
56
③③③③ |--①-|
②②②② |②---|
①①①① |③---|
④④④④ |--④-|
57
③③③③ |--①-|
②②②② |②---|
①①①① |③---|
口④④口 |--④-|
58
③口口③ |----|
②口口② |①---|
①口口① |②---|
口口口口 |③---|
59
口①②口 |①---|
口口口口 |②---|
口③④口 |③-④-|
口⑤⑥口 |⑤-⑥-|
60
口口口口 |----|
口口口口 |----|
口口口口 |----|
口口口口 |----|
61
口口口口 |----|
口④⑤口 |--①-|
口②③口 |②-③-|
口口①口 |④-⑤-|
62
口①口口 |①---|
口口口口 |----|
口口口口 |----|
口口口口 |----|


不确定度: 0

最終更新:2012年11月23日 02:16