ET-KING

EXTREME

Level: 8
BPM: 145
Notes: 580

1
口口口口 |----|
口口口口 |----|
口口口口 |----|
口口口口 |----|
2
口②②口 |①---|
②①①② |----|
①②②① |②---|
口①①口 |----|
3
口口口口 |①---|
②①①② |----|
口③③口 |--②-|
④口口④ |③-④-|
4
口②②口 |①---|
②①①② |----|
①②②① |②---|
口①①口 |----|
5
②口口口 |①---|
②①①口 |----|
③口口④ |--②-|
口③④口 |③-④-|
6
②口口① |--①-|
②口口① |----|
③口口④ |--②-|
口③④口 |③-④-|
7
口口口① |--①-|
口口口① |----|
②②口口 |----|
口口口口 |--②-|
8
口口⑥口 |--①-|
④④③⑤ |②-③-|
⑦⑦口② |④-⑤-|
口口①口 |⑥-⑦-|
9
口口⑧口 |①-②-|
④④③⑦ |③-④-|
口口⑥② |⑤-⑥-|
口口①⑤ |⑦-⑧-|
10
①口口口 |①-②-|
口②口⑥ |--③-|
口口⑤口 |--④-|
③口口④ |⑤-⑥-|
11
口口口⑤ |--①-|
③口④口 |②-③-|
口②口口 |--④-|
①口口口 |⑤---|
12
①口口口 |①-②-|
口②口⑥ |--③-|
口口⑤口 |--④-|
③口口④ |⑤-⑥-|
13
口①①口 |----|
口②②口 |----|
口口口口 |----|
口口口口 |--①②|
14
口口口口 |①---|
口口口口 |----|
③①①口 |----|
口②口口 |②-③-|
15
②③口口 |①-②-|
④①口口 |③-④-|
口⑤口⑦ |⑤---|
口口⑥口 |⑥-⑦-|
16
口口③② |①-②-|
口口①④ |③-④-|
口口⑤口 |⑤---|
口⑥口口 |--⑥-|
17
⑥⑧口⑦ |①-②-|
口④⑤口 |③-④-|
②口口③ |⑤-⑥-|
口口①口 |⑦-⑧-|
18
口口①口 |①-②-|
②口口③ |③-④-|
口④⑤口 |⑤-⑥-|
⑥⑧口⑦ |⑦-⑧-|
19
口口口口 |①-②-|
④口口④ |③---|
②口口③ |----|
④口①④ |④---|
20
⑤①①口 |①---|
口④口口 |----|
③①①口 |②-③-|
口②口口 |④-⑤-|
21
口①⑥⑤ |①---|
口口④⑦ |②-③-|
口口口③ |④-⑤-|
口口②口 |⑥-⑦-|
22
⑦⑥口口 |①-②-|
⑤口口口 |③-④-|
口④①口 |⑤-⑥-|
③口口② |⑦---|
23
口口口口 |----|
口③口口 |①-②-|
⑤⑤②口 |③---|
①①④口 |④-⑤-|
24
口口⑤⑤ |①---|
口④①口 |②---|
口口③口 |③-④-|
②口口口 |⑤---|
25
口④⑤口 |①-②-|
口⑥③③ |③-④-|
口②⑦口 |⑤-⑥-|
⑧⑧①口 |⑦-⑧-|
26
口④⑤口 |①-②-|
口⑥口③ |③-④-|
口②⑦⑦ |⑤-⑥-|
口口①口 |⑦---|
27
②②⑤口 |--①-|
口口③口 |②③④-|
口④⑥口 |⑤---|
⑦⑦①口 |⑥-⑦-|
28
口口口口 |①-②-|
口口③③ |③---|
口②口口
口口①口

口口④口
口口口口
口口口口 |④---|
⑤口⑥口 |⑤-⑥-|
29
③③④口 |①-②-|
口⑤②口 |③-④-|
口①⑥口 |⑤-⑥-|
口⑦⑧⑧ |⑦-⑧-|
30
③③④口 |①-②-|
口口②口 |③-④-|
口①口口
口口口口

口口口口
口⑤口口
口⑥⑥口 |⑤---|
口口口口 |⑥---|
31
①②⑤⑥ |①②③④|
③④⑦⑧ |⑤⑥⑦⑧|
⑨⑩⑬⑭ |⑨⑩⑪⑫|
⑪⑫⑮⑯ |⑬⑭⑮⑯|
32
①③④② |①-②-|
①⑦⑦② |③-④-|
口⑥⑥口 |--⑤-|
口⑤⑤口 |⑥-⑦-|
33
①口口② |①-②-|
①⑤⑤② |--③-|
⑦④④口 |④-⑤-|
⑥③③口 |⑥-⑦-|
34
②⑦⑧⑥ |①-②-|
①口口⑤ |③-④-|
口口口④ |⑤-⑥-|
口口口③ |⑦-⑧-|
35
口⑩口⑨ |①②③④|
⑥⑤⑦⑧ |⑤-⑥-|
口③④口 |⑦-⑧-|
口①②口 |⑨-⑩-|
36
①口口口 |①-②-|
②口口口 |③-④-|
⑦⑥口⑤ |⑤-⑥-|
⑧口③④ |⑦-⑧-|
37
口①①口 |①---|
口②③口 |②-③-|
口口口口
口口口口

⑤⑥⑥⑤
④口口④
口口口口 |--④-|
口口口口 |⑤-⑥-|
38
口⑬⑬口 |①②③④|
⑨⑩⑫⑪ |⑤⑥⑦⑧|
⑤⑥⑧⑦ |⑨⑩⑪⑫|
①②④③ |⑬---|
39
口口口口 |--①②|
口⑤⑥口 |③④⑤⑥|
口③④口
口①②口

⑨⑦⑧⑨
⑩口口⑩
口口口口 |⑦⑧⑨-|
⑪⑫⑬口 |⑩⑪⑫⑬|
40
⑥口口⑥ |①②③④|
口口口口 |⑤⑥--|
⑤④③②
口口口①

口⑦⑧口
口⑨⑩口
口⑪⑫口 |--⑦⑧|
口口口口 |⑨⑩⑪⑫|
41
⑤⑥⑦口 |①②③-|
口口口口 |④⑤⑥⑦|
④口口④
③①②③

口口口⑧
⑨⑩⑪⑫
口口⑬口 |⑧⑨⑩⑪|
口⑬口口 |⑫⑬--|
42
②②②口 |----|
①②①口 |----|
①①口口 |①---|
①口①口 |②---|
43
⑥口口① |①②③④|
口⑥口② |⑤---|
⑤⑤口③ |----|
⑤⑤口④ |--⑥-|
44
⑤口④④ |--①-|
⑥⑤③③ |②-③-|
⑦⑥②② |④-⑤-|
口⑦①① |⑥-⑦-|
45
④③②口 |①---|
口④③② |②-③-|
⑤口①口 |④---|
口⑤口① |--⑤-|
46
②口①口 |--①-|
口②③① |②-③-|
口口口③
口口口口

口口⑦口
④口口⑦
⑥④⑤口 |④-⑤-|
口⑥口⑤ |⑥-⑦-|
47
①口口口 |①-②-|
③①②口 |③-④-|
口③④②
口口口④

⑥口口口
口⑥口口
⑤口口口 |⑤---|
口⑤口口 |--⑥-|
48
口口④④ |--①-|
口口③③ |②-③-|
⑤口②② |④---|
口⑤①① |--⑤-|
49
⑤⑤④④ |--①-|
口口③③ |②-③-|
口口②② |④---|
口口①① |--⑤-|
50
⑦⑦口口 |--①-|
⑥⑥⑤⑤ |②-③-|
①②④④ |④-⑤-|
①②③③ |⑥-⑦-|
51
⑦口⑥⑥ |①-②-|
口⑦⑤⑤ |③-④-|
①②④④ |⑤-⑥-|
①②③③ |--⑦-|
52
⑤口④④ |--①-|
⑥⑤③③ |②-③-|
⑦⑥②② |④-⑤-|
口⑦①① |⑥-⑦-|
53
口③②口 |①---|
口口③② |②-③-|
口口①①
口口①①

④口口口
口④口口
口口口口 |④---|
口口⑤⑤ |--⑤-|
54
④④⑥⑥ |①-②-|
③③②② |③-④-|
口口①① |⑤---|
⑤⑤⑦⑦ |⑥-⑦-|
55
⑤⑤口口 |①-②-|
④④②② |③-④-|
③③①① |⑤---|
⑥口口⑥ |--⑥-|
56
口④④口 |--①-|
口③③口 |②-③-|
口②②口 |④---|
⑤①①⑤ |--⑤-|
57
口口口口 |--①-|
口③③口 |②-③-|
口②②口
口①①口

口④④口
口口口口
口口口口 |④---|
口⑤⑤口 |--⑤-|
58
口②②口 |--①-|
口①①口 |②-③-|
口口口口
③口口③

⑥口口⑥
⑤⑦⑦⑤
④口口④ |④-⑤-|
口口口口 |⑥-⑦-|
59
③⑤⑥④ |①---|
③⑤⑥④ |②---|
口②②口 |③-④-|
口①①口 |⑤-⑥-|
60
口口口口 |----|
口口口口 |----|
口口口口 |----|
口口口口 |----|
61
①口口② |----|
③①②④ |--①-|
⑤③④口 |②-③-|
口⑤口口 |④-⑤-|
62
口口口口 |①---|
口口口口 |----|
口口口① |----|
口口①口 |----|


不确定度: 0

最終更新:2012年11月23日 02:15