にんげんっていいな
ガガガSP

BASIC

Level: 3
BPM: 164-167
Notes: 221

全程BPM: 164-167飄忽不定
1
口口口口 |----|
口口口口 |----|
口口口口 |----|
口口口口 |----|
2
口口口口 |----|
口口口口 |----|
口口口口 |----|
口口口口 |----|
3
①②口口 |①---|
口口口口 |----|
口口口口 |②---|
口口口口 |----|
4
口口①② |①---|
口口口口 |----|
口口口口 |②---|
口口口口 |----|
5
口口口口 |①---|
口口②① |----|
口口口口 |②---|
口口口口 |----|
6
口口口口 |①---|
②①口口 |----|
口口口口 |②---|
口口口口 |----|
7
口口口口 |①---|
口口口口 |----|
①②口口 |②---|
口口口口 |----|
8
口口口口 |①---|
口口口口 |----|
口口①② |②---|
口口口口 |----|
9
口口口口 |①---|
口口口口 |----|
口口口口 |②---|
口口②① |----|
10
口口口口 |①---|
口口口口 |----|
口口口口 |②---|
②①口口 |----|
11
口口口口 |①---|
②口口口 |----|
①口口口 |②---|
口口口口 |----|
12
口①口口 |①---|
口②口口 |②---|
口③口口 |③---|
口口口口 |----|
13
口口口口 |①---|
口口②口 |----|
口口①口 |②---|
口口口口 |----|
14
口口口① |①---|
口口口② |②---|
口口口③ |③---|
口口口口 |----|
15
口口口口 |①---|
口口口口 |----|
口口口② |②---|
口口口① |----|
16
口口口口 |①---|
口口①口 |②---|
口口②口 |③---|
口口③口 |----|
17
口口口口 |①---|
口口口口 |----|
口②口口 |②---|
口①口口 |----|
18
口口口口 |①---|
①口口口 |②---|
②口口口 |③---|
③口口口 |----|
19
①②③口 |----|
口口口口 |①---|
口口口口 |②---|
口口口口 |③---|
20
口口口口 |①---|
口③②① |②---|
口口口口 |③---|
口口口口 |----|
21
口口口口 |①---|
口口口口 |----|
①口口② |②---|
口口口口 |----|
22
口口口口 |①---|
口③③口 |②---|
口②②口 |③---|
口①①口 |----|
23
①口口口 |①---|
②口口口 |②---|
③口口口 |③---|
④口口口 |④---|
24
口口口口 |①---|
口口口口 |②---|
口口口口 |③---|
口①②③ |----|
25
口口口② |①---|
口口口① |----|
口口口口 |②---|
口口口口 |----|
26
口①①口 |①---|
口②②口 |②---|
口③③口 |③---|
口④④口 |④---|
27
①口口② |①---|
口口口口 |----|
口口口口 |②---|
口口口口 |----|
28
口口口口 |①---|
①口口② |----|
口口口口 |②---|
口口口口 |----|
29
口①②口 |①---|
口③④口 |②---|
口口口口 |③---|
口口口口 |④---|
30
口口口口 |①---|
口口口口 |②---|
口①①口 |③---|
③②②③ |----|
31
①②口口 |①---|
口口口口 |----|
口口口口 |②---|
口口口口 |----|
32
口口①② |①---|
口口口口 |----|
口口口口 |②---|
口口口口 |----|
33
口口口口 |①---|
口口②① |----|
口口口口 |②---|
口口口口 |----|
34
口口口口 |①---|
②①口口 |----|
口口口口 |②---|
口口口口 |----|
35
口口口口 |①---|
口口口口 |----|
①②口口 |②---|
口口口口 |----|
36
口口口口 |①---|
口口口口 |----|
口口①② |②---|
口口口口 |----|
37
口口口口 |①---|
口口口口 |----|
口口口口 |②---|
口口②① |----|
38
口口口口 |①---|
口口口口 |----|
口口口口 |②---|
②①口口 |----|
39
口口口口 |①---|
②口口口 |----|
①口口口 |②---|
口口口口 |----|
40
口①口口 |①---|
口②口口 |②---|
口③口口 |③---|
口口口口 |----|
41
口口口口 |①---|
口口②口 |----|
口口①口 |②---|
口口口口 |----|
42
口口口① |①---|
口口口② |②---|
口口口③ |③---|
口口口口 |----|
43
口口口口 |①---|
口口口口 |----|
口口口② |②---|
口口口① |----|
44
口口口口 |①---|
口口①口 |②---|
口口②口 |③---|
口口③口 |----|
45
口口口口 |①---|
口口口口 |----|
口②口口 |②---|
口①口口 |----|
46
口口口口 |①---|
①口口口 |②---|
②口口口 |③---|
③口口口 |----|
47
①②③口 |----|
口口口口 |①---|
口口口口 |②---|
口口口口 |③---|
48
口口口口 |①---|
口③②① |②---|
口口口口 |③---|
口口口口 |----|
49
口口口口 |①---|
口口口口 |----|
①口口② |②---|
口口口口 |----|
50
口口口口 |①---|
口③③口 |②---|
口②②口 |③---|
口①①口 |----|
51
①口口口 |①---|
②口口口 |②---|
③口口口 |③---|
④口口口 |④---|
52
口口口口 |①---|
口口口口 |②---|
口口口口 |③---|
口①②③ |----|
53
口口口② |①---|
口口口① |----|
口口口口 |②---|
口口口口 |----|
54
口①①口 |①---|
口②②口 |②---|
口③③口 |③---|
口④④口 |④---|
55
①口口② |①---|
口口口口 |----|
口口口口 |②---|
口口口口 |----|
56
口口口口 |①---|
①口口② |----|
口口口口 |②---|
口口口口 |----|
57
口①②口 |①---|
口③④口 |②---|
口口口口 |③---|
口口口口 |④---|
58
口口口口 |①---|
口口口口 |②---|
口①①口 |③---|
③②②③ |----|
59
①②③口 |----|
口口口口 |①---|
口口口口 |②---|
口口口口 |③---|
60
口口口口 |①---|
口③②① |②---|
口口口口 |③---|
口口口口 |----|
61
口口口口 |①---|
口口口口 |----|
①口口② |②---|
口口口口 |----|
62
口口口口 |①---|
口③③口 |②---|
口②②口 |③---|
口①①口 |----|
63
①口口口 |①---|
②口口口 |②---|
③口口口 |③---|
④口口口 |④---|
64
口口口口 |①---|
口口口口 |②---|
口口口口 |③---|
口①②③ |----|
65
口口口② |①---|
口口口① |----|
口口口口 |②---|
口口口口 |----|
66
口①①口 |①---|
口②②口 |②---|
口③③口 |③---|
口④④口 |④---|
67
①口口② |①---|
口口口口 |----|
口口口口 |②---|
口口口口 |----|
68
口口口口 |①---|
①口口② |----|
口口口口 |②---|
口口口口 |----|
69
口①②口 |①---|
口③④口 |②---|
口口口口 |③---|
口口口口 |④---|
70
口口口口 |①---|
口口口口 |②---|
口①①口 |③---|
③②②③ |----|
71
①口口② |①---|
口口口口 |----|
口口口口 |②---|
口口口口 |----|
72
口口口口 |①---|
①口口② |----|
口口口口 |②---|
口口口口 |----|
73
口①②口 |①---|
口③④口 |②---|
口口口口 |③---|
口口口口 |④---|
74
口口口口 |①---|
口口口口 |②---|
口①①口 |③---|
③②②③ |----|


不确定度: 0

最終更新:2012年11月23日 02:15