にんげんっていいな
ガガガSP

ADVANCED

Level: 4
BPM: 164-167
Notes: 282

全程BPM: 164-167飄忽不定
1
口口口口 |----|
口口口口 |----|
口口口口 |----|
口口口口 |----|
2
口口口口 |----|
口口口口 |----|
口口口口 |----|
口口口口 |----|
3
口⑤④口 |①-②-|
⑥口口③ |③---|
口口口② |④-⑤-|
口口口① |--⑥-|
4
③口口口 |--①-|
口口口口 |--②-|
①口口口 |----|
②口口口 |--③-|
5
口口口① |①---|
②口口口 |----|
口口口口 |----|
口口口口 |--②-|
6
口口口口 |①---|
口口口① |----|
口口口口 |----|
口口口口 |----|
7
口⑤④口 |①-②-|
⑥口口③ |③---|
口口口② |④-⑤-|
口口口① |--⑥-|
8
口口口口 |--①-|
口口口口 |--②-|
①口口口
②口口口

口口口口
口口口口
③口口口 |----|
口口口口 |--③-|
9
口口口口 |①---|
口口口口 |----|
口口口① |----|
口口口口 |----|
10
口口口口 |①-②-|
口①②口 |③-④-|
口③④口 |----|
⑤口口口 |---⑤|
11
③口口口 |---①|
②口口口 |---②|
①口口口 |---③|
口口口口 |----|
12
口口①口 |①---|
口口口② |②---|
口口③口 |③---|
口口口口 |----|
13
口口口④ |①---|
口口口③ |②---|
口口口② |③---|
口口口① |④---|
14
口①口口 |①---|
②口口口 |②---|
口③口口 |③---|
口口口口 |----|
15
口口④口 |①---|
口③口口 |②---|
口口②口 |③---|
口①口口 |④---|
16
①口口① |①---|
②口口② |②---|
③口口③ |③---|
口口口口 |----|
17
①口口① |①---|
口口口口 |----|
口口口口 |②---|
②口口② |----|
18
口口口口 |①---|
口③③口 |②---|
口②②口 |③---|
口①①口 |----|
19
①口口口 |----|
口②口口 |①---|
口口③口 |②---|
口口口口 |③---|
20
口口口① |①---|
口口②口 |②---|
口③口口 |③---|
口口口口 |----|
21
口口口口 |①---|
口口口口 |----|
口口口口 |②---|
口①②口 |----|
22
口口口口 |①---|
口③③口 |②---|
口①②口 |③---|
口口口口 |----|
23
口①②口 |①---|
口③④口 |②---|
口口口口 |③---|
口口口口 |④---|
24
口口口口 |①---|
口口口口 |②---|
①③③② |③---|
口口口口 |----|
25
①口口② |①---|
口③④口 |②---|
口口口口 |③---|
口口口口 |④---|
26
口口口口 |①---|
④口口④ |②---|
③①②③ |③---|
口口口口 |④---|
27
口口①口 |①---|
口口②口 |②---|
口口③口 |③---|
口口④口 |④---|
28
口①口口 |①---|
口②口口 |②---|
口③口口 |③---|
口④口口 |④---|
29
口口口口 |①---|
口口口口 |②---|
口口①② |③---|
口口④③ |④---|
30
①①口口 |①---|
口口②② |②---|
③③口口 |③---|
口口口口 |----|
31
口⑤④口 |①-②-|
⑥口口③ |③---|
口口口② |④-⑤-|
口口口① |--⑥-|
32
③口口口 |--①-|
口口口口 |--②-|
①口口口 |----|
②口口口 |--③-|
33
口口口① |①---|
②口口口 |----|
口口口口 |----|
口口口口 |--②-|
34
口口口口 |①---|
口口口① |----|
口口口口 |----|
口口口口 |----|
35
口⑤④口 |①-②-|
⑥口口③ |③---|
口口口② |④-⑤-|
口口口① |--⑥-|
36
口口口口 |--①-|
口口口口 |--②-|
①口口口
②口口口

口口口口
口口口口
③口口口 |----|
口口口口 |--③-|
37
口口口口 |①---|
口口口口 |----|
口口口① |----|
口口口口 |----|
38
口口口口 |①-②-|
口①②口 |③-④-|
口③④口 |----|
⑤口口口 |---⑤|
39
③口口口 |---①|
②口口口 |---②|
①口口口 |---③|
口口口口 |----|
40
口口①口 |①---|
口口口② |②---|
口口③口 |③---|
口口口口 |----|
41
口口口④ |①---|
口口口③ |②---|
口口口② |③---|
口口口① |④---|
42
口①口口 |①---|
②口口口 |②---|
口③口口 |③---|
口口口口 |----|
43
口口④口 |①---|
口③口口 |②---|
口口②口 |③---|
口①口口 |④---|
44
①口口① |①---|
②口口② |②---|
③口口③ |③---|
口口口口 |----|
45
①口口① |①---|
口口口口 |----|
口口口口 |②---|
②口口② |----|
46
口口口口 |①---|
口③③口 |②---|
口②②口 |③---|
口①①口 |----|
47
①口口口 |----|
口②口口 |①---|
口口③口 |②---|
口口口口 |③---|
48
口口口① |①---|
口口②口 |②---|
口③口口 |③---|
口口口口 |----|
49
口口口口 |①---|
口口口口 |----|
口口口口 |②---|
口①②口 |----|
50
口口口口 |①---|
口③③口 |②---|
口①②口 |③---|
口口口口 |----|
51
口①②口 |①---|
口③④口 |②---|
口口口口 |③---|
口口口口 |④---|
52
口口口口 |①---|
口口口口 |②---|
①③③② |③---|
口口口口 |----|
53
①口口② |①---|
口③④口 |②---|
口口口口 |③---|
口口口口 |④---|
54
口口口口 |①---|
④口口④ |②---|
③①②③ |③---|
口口口口 |④---|
55
口口①口 |①---|
口口②口 |②---|
口口③口 |③---|
口口④口 |④---|
56
口①口口 |①---|
口②口口 |②---|
口③口口 |③---|
口④口口 |④---|
57
口口口口 |①---|
口口口口 |②---|
口口①② |③---|
口口④③ |④---|
58
①①口口 |①---|
口口②② |②---|
③③口口 |③---|
口口口口 |----|
59
①口口口 |----|
口②口口 |①---|
口口③口 |②---|
口口口口 |③---|
60
口口口① |①---|
口口②口 |②---|
口③口口 |③---|
口口口口 |----|
61
口口口口 |①---|
口口口口 |----|
口口口口 |②---|
口①②口 |----|
62
口口口口 |①---|
口③③口 |②---|
口①②口 |③---|
口口口口 |----|
63
口①②口 |①---|
口③④口 |②---|
口口口口 |③---|
口口口口 |④---|
64
口口口口 |①---|
口口口口 |②---|
①③③② |③---|
口口口口 |----|
65
①口口② |①---|
口③④口 |②---|
口口口口 |③---|
口口口口 |④---|
66
口口口口 |①---|
④口口④ |②---|
③①②③ |③---|
口口口口 |④---|
67
口口①口 |①---|
口口②口 |②---|
口口③口 |③---|
口口④口 |④---|
68
口①口口 |①---|
口②口口 |②---|
口③口口 |③---|
口④口口 |④---|
69
口口口口 |①---|
口口口口 |②---|
口口①② |③---|
口口④③ |④---|
70
①①口口 |①---|
口口②② |②---|
③③口口 |③---|
口口口口 |----|
71
口口①口 |①---|
口口②口 |②---|
口口③口 |③---|
口口④口 |④---|
72
口①口口 |①---|
口②口口 |②---|
口③口口 |③---|
口④口口 |④---|
73
口口口口 |①---|
口口口口 |②---|
口口①② |③---|
口口④③ |④---|
74
①①口口 |①---|
口口②② |②---|
③③口口 |③---|
口口口口 |----|


不确定度: 0

最終更新:2012年11月23日 02:14