にんげんっていいな
ガガガSP

EXTREME

Level: 7
BPM: 164-167
Notes: 529

全程BPM: 164-167飄忽不定
1
口口口口 |----|
口口口口 |----|
口口口口 |----|
口口口口 |----|
2
①口口① |①---|
②口口② |②---|
③口口③ |③---|
④口口④ |④---|
3
口⑥⑥口 |①-②-|
口⑤口口 |③---|
口④③口 |④-⑤-|
口①②口 |--⑥-|
4
①口口① |--①-|
②口口② |--②-|
口口口口 |----|
③口口③ |--③-|
5
①⑤⑤① |①---|
口④③② |②---|
口口口口 |③---|
口口口口 |④-⑤-|
6
口口口口 |①---|
口口口口 |②---|
②③④口 |③---|
口①①口 |④---|
7
口①②口 |①-②-|
口④③口 |③---|
口⑤口口 |④-⑤-|
口⑥⑥口 |--⑥-|
8
③口口③ |--①-|
口口口口 |--②-|
②口口② |----|
①口口① |--③-|
9
口口口口 |①---|
口④口口 |②---|
口③②口 |③---|
①口口① |④---|
10
口口口口 |①-②-|
②口口① |③-④-|
④口口③ |----|
⑤口口口 |---⑤|
11
⑥⑤④③ |-①-②|
⑦口②口 |-③-④|
口①口口 |-⑤-⑥|
口口口口 |-⑦--|
12
口口③口 |①---|
口②③口 |②---|
①②口口 |③---|
①口口口 |----|
13
④⑤⑥⑦ |①-②-|
口③口⑧ |③-④-|
口口②口 |⑤-⑥-|
口口口① |⑦-⑧-|
14
口③口口 |①---|
口③②口 |②---|
口口②① |③---|
口口口① |----|
15
口口口① |①-②-|
口口②口 |③-④-|
口③口⑧ |⑤-⑥-|
④⑤⑥⑦ |⑦-⑧-|
16
口口口① |①---|
口口②① |②---|
口③②口 |③---|
口③口口 |----|
17
①①①① |①---|
①口口① |----|
②口口② |②---|
②②②② |----|
18
①口①口 |①---|
口②口② |②---|
③口③口 |③---|
④口口口 |④---|
19
②③口口 |①---|
③④④③ |②---|
口口③② |③---|
口口①口 |④---|
20
口口②① |①---|
②③③② |②---|
①②口口 |③---|
口口口口 |----|
21
口口口口 |①---|
口④④口 |②---|
②③③② |③---|
①②②① |④---|
22
②①①② |①---|
①口口① |②---|
③口口③ |③---|
口③③口 |----|
23
口①②口 |①---|
①口口② |②---|
③口口④ |③---|
口③④口 |④---|
24
口口口口 |①②③④|
⑤③④⑥ |⑤-⑥-|
⑦①②口 |⑦---|
口口口口 |----|
25
④口口③ |①---|
口④③口 |②---|
口②①口 |③---|
②口口① |④---|
26
口口口口 |①---|
③④④③ |②---|
②④④② |③---|
口①①口 |④---|
27
口口口口 |①---|
口④口口 |②---|
②③④口 |③---|
①②口口 |④---|
28
口口口口 |①---|
口口④口 |②---|
口④③② |③---|
口口②① |④---|
29
口①②口 |①---|
口④③口 |②---|
口口口口 |③---|
口口口口 |④---|
30
口口口口 |①---|
①口口② |②---|
③①②③ |③---|
③口口③ |----|
31
口⑥⑥口 |①-②-|
口⑤口口 |③---|
口④③口 |④-⑤-|
口①②口 |--⑥-|
32
①口口① |--①-|
②口口② |--②-|
口口口口 |----|
③口口③ |--③-|
33
①⑤⑤① |①---|
口④③② |②---|
口口口口 |③---|
口口口口 |④-⑤-|
34
口口口口 |①---|
口口口口 |②---|
②③④口 |③---|
口①①口 |④---|
35
口①②口 |①-②-|
口④③口 |③---|
口⑤口口 |④-⑤-|
口⑥⑥口 |--⑥-|
36
③口口③ |--①-|
口口口口 |--②-|
②口口② |----|
①口口① |--③-|
37
口口口口 |①---|
口④口口 |②---|
口③②口 |③---|
①口口① |④---|
38
口口口口 |①-②-|
②口口① |③-④-|
④口口③ |----|
⑤口口口 |---⑤|
39
⑥⑤④③ |-①-②|
⑦口②口 |-③-④|
口①口口 |-⑤-⑥|
口口口口 |-⑦--|
40
口口③口 |①---|
口②③口 |②---|
①②口口 |③---|
①口口口 |----|
41
④⑤⑥⑦ |①-②-|
口③口⑧ |③-④-|
口口②口 |⑤-⑥-|
口口口① |⑦-⑧-|
42
口③口口 |①---|
口③②口 |②---|
口口②① |③---|
口口口① |----|
43
口口口① |①-②-|
口口②口 |③-④-|
口③口⑧ |⑤-⑥-|
④⑤⑥⑦ |⑦-⑧-|
44
口口口① |①---|
口口②① |②---|
口③②口 |③---|
口③口口 |----|
45
①①①① |①---|
①口口① |----|
②口口② |②---|
②②②② |----|
46
①口①口 |①---|
口②口② |②---|
③口③口 |③---|
④口口口 |④---|
47
②③口口 |①---|
③④④③ |②---|
口口③② |③---|
口口①口 |④---|
48
口口②① |①---|
②③③② |②---|
①②口口 |③---|
口口口口 |----|
49
口口口口 |①---|
口④④口 |②---|
②③③② |③---|
①②②① |④---|
50
②①①② |①---|
①口口① |②---|
③口口③ |③---|
口③③口 |----|
51
口①②口 |①---|
①口口② |②---|
③口口④ |③---|
口③④口 |④---|
52
口口口口 |①②③④|
⑤③④⑥ |⑤-⑥-|
⑦①②口 |⑦---|
口口口口 |----|
53
④口口③ |①---|
口④③口 |②---|
口②①口 |③---|
②口口① |④---|
54
口口口口 |①---|
③④④③ |②---|
②④④② |③---|
口①①口 |④---|
55
口口口口 |①---|
口④口口 |②---|
②③④口 |③---|
①②口口 |④---|
56
口口口口 |①---|
口口④口 |②---|
口④③② |③---|
口口②① |④---|
57
口①②口 |①---|
口④③口 |②---|
口口口口 |③---|
口口口口 |④---|
58
口口口口 |①---|
①口口② |②---|
③①②③ |③---|
口③③口 |----|
59
①②口口 |----|
②③③② |①---|
口口②① |②---|
口口口口 |③---|
60
口口②① |①---|
②③③② |②---|
①②口口 |③---|
口口口口 |----|
61
口口口口 |①---|
口④④口 |②---|
②③③② |③---|
①②②① |④---|
62
②①①② |①---|
①口口① |②---|
③口口③ |③---|
口③③口 |----|
63
口①②口 |①---|
①口口② |②---|
③口口④ |③---|
口③④口 |④---|
64
口口口口 |①②③④|
⑤③④⑥ |⑤-⑥-|
⑦①②口 |⑦---|
口口口口 |----|
65
④口口③ |①---|
口④③口 |②---|
口②①口 |③---|
②口口① |④---|
66
口口口口 |①---|
③④④③ |②---|
②④④② |③---|
口①①口 |④---|
67
口口口口 |①---|
口④口口 |②---|
②③④口 |③---|
①②口口 |④---|
68
口口口口 |①---|
口口④口 |②---|
口④③② |③---|
口口②① |④---|
69
口①②口 |①---|
口④③口 |②---|
口口口口 |③---|
口口口口 |④---|
70
口口口口 |①---|
①口口② |②---|
③①②③ |③---|
口③③口 |----|
71
口口口口 |①---|
口④口口 |②---|
②③④口 |③---|
①②口口 |④---|
72
口口口口 |①---|
口口④口 |②---|
口④③② |③---|
口口②① |④---|
73
口①②口 |①---|
口④③口 |②---|
口口口口 |③---|
口口口口 |④---|
74
口口口口 |①---|
①口口② |②---|
③①②③ |③---|
口③③口 |----|


不确定度: 0

最終更新:2012年11月23日 02:14