HOT LIMIT

ADVANCED

Level: 7
BPM: 139
Notes: 432

1
口口口口 |----|
口口口口 |----|
口口口口 |----|
口口口口 |----|
2
口⑦⑧口 |①-②-|
口⑤⑥口 |③-④-|
口③④口 |⑤-⑥-|
口①②口 |⑦-⑧-|
3
⑦口口⑧ |①-②-|
口⑤⑥口 |③-④-|
③口口④ |⑤⑥-⑦|
①口口② |--⑧-|
4
口⑦⑧口 |①-②-|
口⑤⑥口 |③-④-|
口③④口 |⑤-⑥-|
口①②口 |⑦-⑧-|
5
⑦口口⑧ |①-②-|
口⑤⑥口 |③-④-|
③口口④ |⑤⑥-⑦|
①口口② |--⑧-|
6
口⑦⑧口 |①-②-|
口⑤⑥口 |③-④-|
口③④口 |⑤-⑥-|
口①②口 |⑦-⑧-|
7
⑦口口⑧ |①-②-|
口⑤⑥口 |③-④-|
③口口④ |⑤⑥-⑦|
①口口② |--⑧-|
8
口⑦⑧口 |①-②-|
口⑤⑥口 |③-④-|
口③④口 |⑤-⑥-|
口①②口 |⑦-⑧-|
9
⑦口口⑧ |①-②-|
口⑤⑥口 |③-④-|
③口口④ |⑤⑥-⑦|
①口口② |--⑧-|
10
⑥④⑤口 |①---|
口③口口 |②---|
口②②口 |③-④⑤|
①口口① |--⑥-|
11
口口口① |①-②-|
②口口③ |③-④-|
④⑥⑦⑤ |⑤-⑥⑦|
口口口口 |----|
12
②口口⑤ |①-②-|
⑧口口① |③-④-|
④口口⑦ |⑤-⑥-|
⑥口口③ |⑦-⑧-|
13
口⑤④口 |①-②-|
口③口口 |③-④⑤|
口口②口 |----|
口①口口 |----|
14
⑧⑦⑥口 |①-②-|
口⑤口口 |③-④-|
口③④口 |⑤-⑥⑦|
①口口② |--⑧-|
15
口口口① |①-②-|
②口口③ |③-④-|
④⑥⑦⑤ |⑤-⑥⑦|
口口口口 |----|
16
②口口⑤ |①-②-|
⑧口口① |③-④-|
④口口⑦ |⑤-⑥-|
⑥口口③ |⑦-⑧-|
17
④④④④ |①-②-|
口③口口 |③---|
口口②口 |④---|
口①口口 |----|
18
口口口口 |①-②③|
⑨⑤④⑩ |④⑤--|
⑦③②⑧ |⑥-⑦⑧|
①口口⑥ |⑨⑩--|
19
⑨口口⑨ |①-②③|
⑧⑤④⑧ |④⑤--|
⑦③②⑦ |⑥-⑦-|
①⑥⑥口 |⑧-⑨-|
20
口口口口 |①-②③|
⑨⑤④⑩ |④⑤--|
⑦③②⑧ |⑥-⑦⑧|
①口口⑥ |⑨⑩--|
21
⑨口口⑨ |①-②③|
⑧⑤④⑧ |④⑤--|
⑦③②⑦ |⑥-⑦-|
①⑥⑥口 |⑧-⑨-|
22
⑤口⑥⑦ |①-②-|
口②③④ |③-④-|
口①口口 |⑤-⑥⑦|
口口口口 |----|
23
口口⑥⑦ |①-②-|
②③④⑤ |③-④-|
口①口口 |⑤-⑥⑦|
口口口口 |----|
24
⑤口⑥⑦ |①-②-|
①②③④ |③-④-|
⑧口⑨口 |⑤-⑥⑦|
口口口口 |--⑧⑨|
25
③④④③ |①--②|
②口口② |--③-|
口①口口 |④---|
口口口口 |----|
26
⑤口⑥⑦ |①-②-|
口口口口 |③-④-|
①②③④ |⑤-⑥⑦|
口口口口 |----|
27
口口⑥⑦ |①-②-|
②③④⑤ |③-④-|
口①口口 |⑤-⑥⑦|
口口口口 |----|
28
⑤口⑥⑦ |①-②-|
①②③④ |③-④-|
⑧口⑨口 |⑤-⑥⑦|
口口口口 |--⑧⑨|
29
③④④③ |①--②|
②口口② |--③-|
口①口口 |④---|
口口口口 |----|
30
口口④口 |①--②|
⑤③口口 |--③-|
口口⑥② |④--⑤|
口①口口 |--⑥-|
31
口④口口 |①--②|
口口③口 |--③-|
口②口口 |④---|
口①口口 |----|
32
口⑤⑤口 |①--②|
口口④口 |--③-|
口③②① |④---|
口口口口 |⑤---|
33
口口口口 |①---|
③③③③ |②---|
②②②② |③---|
①①①① |----|
34
口口④口 |①--②|
⑤③口口 |--③-|
口口⑥② |④--⑤|
口①口口 |--⑥-|
35
口口口口 |①--②|
口口③口 |--③-|
口②口口
口①口口

口④口口
口口口口
口口口口 |④---|
口⑤口口 |--⑤-|
36
口口口口 |①---|
口口③口 |--②-|
口②口口 |③---|
口④①口 |--④-|
37
口口口口 |①--②|
④口口④ |--③-|
③⑤口③ |④---|
②口①② |--⑤-|
38
④口口④ |①--②|
③口口③ |--③-|
②口①② |④---|
口口口口 |----|
39
⑥④⑤口 |①---|
口③口口 |②---|
口②②口 |③-④⑤|
①口口① |--⑥-|
40
口口口① |①-②-|
②口口③ |③-④-|
④⑥⑦⑤ |⑤-⑥⑦|
口口口口 |----|
41
②口口⑤ |①-②-|
⑧口口① |③-④-|
④口口⑦ |⑤-⑥-|
⑥口口③ |⑦-⑧-|
42
口⑤④口 |①-②-|
口③口口 |③-④⑤|
口口②口 |----|
口①口口 |----|
43
⑧⑦⑥口 |①-②-|
口⑤口口 |③-④-|
口③④口 |⑤-⑥⑦|
①口口② |--⑧-|
44
口口口① |①-②-|
②口口③ |③-④-|
④⑥⑦⑤ |⑤-⑥⑦|
口口口口 |----|
45
②口口⑤ |①-②-|
⑧口口① |③-④-|
④口口⑦ |⑤-⑥-|
⑥口口③ |⑦-⑧-|
46
④④④④ |①-②-|
口③口口 |③---|
口口②口 |④---|
口①口口 |----|
47
口口口口 |①-②③|
⑨⑤④⑩ |④⑤--|
⑦③②⑧ |⑥-⑦⑧|
①口口⑥ |⑨⑩--|
48
⑨口口⑨ |①-②③|
⑧⑤④⑧ |④⑤--|
⑦③②⑦ |⑥-⑦-|
①⑥⑥口 |⑧-⑨-|
49
口口口口 |①-②③|
⑨⑤④⑩ |④⑤--|
⑦③②⑧ |⑥-⑦⑧|
①口口⑥ |⑨⑩--|
50
⑦⑥⑥⑦ |①-②③|
⑧⑤④⑧ |④⑤--|
⑨③②⑨ |⑥-⑦-|
①口口口 |⑧-⑨-|
51
口⑦⑧口 |①-②-|
口⑤⑥口 |③-④-|
口③④口 |⑤-⑥-|
口①②口 |⑦-⑧-|
52
口口口口 |①-②-|
⑦⑤⑥⑧ |③-④-|
③口口④ |⑤⑥-⑦|
①口口② |--⑧-|
53
口⑦⑧口 |①-②-|
口⑤⑥口 |③-④-|
口③④口 |⑤-⑥-|
口①②口 |⑦-⑧-|
54
口口口口 |①-②-|
⑦⑤⑥⑧ |③-④-|
③口口④ |⑤⑥-⑦|
①口口② |--⑧-|
55
⑦口口⑧ |①-②-|
口⑤⑥口 |③-④-|
③①②④ |⑤⑥-⑦|
口口口口 |--⑧-|
56
口①①口 |①---|
口口口口 |----|
口口口口 |----|
口口口口 |----|


不确定度: 0

最終更新:2012年11月23日 02:14