HOT LIMIT

EXTREME

Level: 8
BPM: 139
Notes: 574

1
口口口口 |----|
口口口口 |----|
口口口口 |----|
口口口口 |----|
2
⑦⑨⑪② |①②③④|
⑤⑮⑬④ |⑤⑥⑦⑧|
③⑭⑯⑥ |⑨⑩⑪⑫|
①⑫⑩⑧ |⑬⑭⑮⑯|
3
口口口口 |①-②-|
口⑦⑥口 |③-④-|
③⑤⑧④ |⑤⑥-⑦|
①口口② |--⑧-|
4
⑦⑨⑪② |①②③④|
⑤⑮⑬④ |⑤⑥⑦⑧|
③⑭⑯⑥ |⑨⑩⑪⑫|
①⑫⑩⑧ |⑬⑭⑮⑯|
5
口口口口 |①-②-|
口⑦⑥口 |③-④-|
③⑤⑧④ |⑤⑥-⑦|
①口口② |--⑧-|
6
⑦⑨⑪② |①②③④|
⑤⑮⑬④ |⑤⑥⑦⑧|
③⑭⑯⑥ |⑨⑩⑪⑫|
①⑫⑩⑧ |⑬⑭⑮⑯|
7
口口口口 |①-②-|
口⑦⑥口 |③-④-|
③⑤⑧④ |⑤⑥-⑦|
①口口② |--⑧-|
8
⑦⑨⑪② |①②③④|
⑤⑮⑬④ |⑤⑥⑦⑧|
③⑭⑯⑥ |⑨⑩⑪⑫|
①⑫⑩⑧ |⑬⑭⑮⑯|
9
口口口口 |①-②-|
口⑦⑥口 |③-④-|
③⑤⑧④ |⑤⑥-⑦|
①口口② |--⑧-|
10
口口⑥口 |①---|
③口口③ |②---|
②④⑤② |③-④⑤|
口①①口 |--⑥-|
11
口①口口 |①-②-|
②口口口 |③-④-|
③⑥⑦口 |⑤-⑥⑦|
口④⑤口 |----|
12
②②⑤⑤ |①-②-|
⑥⑥①① |③-④-|
④④⑦⑦ |⑤-⑥-|
⑧⑧③③ |⑦-⑧-|
13
③口⑤口 |①-②-|
口④②① |③-④⑤|
①②口口 |----|
口口口③ |----|
14
①②③④ |①-②-|
口口口口 |③-④-|
口口口口
④③②①

口口⑧口
口口口⑤
⑤⑥⑦口 |⑤-⑥⑦|
口口口口 |--⑧-|
15
口①口口 |①-②-|
②口口口 |③-④-|
③⑥⑦口 |⑤-⑥⑦|
口④⑤口 |----|
16
②②⑤⑤ |①-②-|
⑥⑥①① |③-④-|
④④⑦⑦ |⑤-⑥-|
⑧⑧③③ |⑦-⑧-|
17
③④口口 |①-②-|
口④②① |③---|
①②④口 |④---|
口口④③ |----|
18
口口口口 |①-②③|
⑨⑤④⑩ |④⑤--|
⑦③②⑧ |⑥-⑦⑧|
①口口⑥ |⑨⑩--|
19
⑨口口⑨ |①-②③|
⑧⑤④⑧ |④⑤--|
⑦③②⑦ |⑥-⑦-|
①⑥⑥口 |⑧-⑨-|
20
口口口口 |①-②③|
⑨⑤④⑩ |④⑤--|
⑦③②⑧ |⑥-⑦⑧|
①口口⑥ |⑨⑩--|
21
⑨口口⑨ |①-②③|
⑧⑤④⑧ |④⑤--|
⑦③②⑦ |⑥-⑦-|
①⑥⑥口 |⑧-⑨-|
22
口①②口 |①-②-|
口③④口 |③-④-|
口口口口
口口口口

⑧口⑨口
口口口口
口⑤口口 |⑤-⑥⑦|
口口⑥⑦ |--⑧⑨|
23
口①口口 |①-②-|
口③口② |③-④-|
⑤口④口 |⑤-⑥⑦|
口⑦⑥口 |----|
24
⑧①⑨② |①-②-|
③口④口 |③-④-|
口⑤口口 |⑤-⑥⑦|
口口⑥⑦ |--⑧⑨|
25
口①口口 |①--②|
口④③② |--③-|
②③④口 |④---|
口口口口 |----|
26
⑧①⑨② |①-②-|
③口④口 |③-④-|
口⑤口口 |⑤-⑥⑦|
口口⑥⑦ |--⑧⑨|
27
⑧①⑨口 |①-②-|
口③口② |③-④-|
⑤口④口 |⑤-⑥⑦|
口⑦⑥口 |--⑧⑨|
28
⑧①⑨口 |①-②-|
③口④② |③-④-|
口⑤口口 |⑤-⑥⑦|
口口⑥⑦ |--⑧⑨|
29
口①口口 |①--②|
口④③② |--③-|
②③④口 |④---|
口口口口 |----|
30
①④③① |①--②|
②③④② |--③-|
口口⑥口 |④--⑤|
⑤⑥口⑤ |--⑥-|
31
⑤④④口 |①--②|
口③③⑥ |--③-|
②①口② |④---|
口口①口 |--⑤⑥|
32
口⑤⑤口 |①--②|
口口口口 |--③-|
①④口口 |④---|
口②③口 |⑤---|
33
口口口口 |①---|
口口口口 |②---|
②②②②
①①①①

口口口口
③③③③
口口口⑤ |③---|
④口口口 |--④⑤|
34
①④③口 |①--②|
②③④② |--③-|
口口⑥口 |④--⑤|
⑤⑥口⑤ |--⑥-|
35
⑤④④口 |①--②|
⑤③③口 |--③-|
②①口② |④---|
口口①口 |--⑤-|
36
口口口① |①---|
口口口① |--②-|
③③口口 |③---|
④④②② |--④-|
37
③④④③ |①--②|
②②口口 |--③-|
口口①① |④---|
口⑤⑥口 |--⑤⑥|
38
④④口口 |①--②|
口口③③ |--③-|
②②口口 |④---|
口口口① |----|
39
口口⑥口 |①---|
③口口③ |②---|
②④⑤② |③-④⑤|
口①①口 |--⑥-|
40
口①口口 |①-②-|
②口口口 |③-④-|
③⑥⑦口 |⑤-⑥⑦|
口④⑤口 |----|
41
②②⑤⑤ |①-②-|
⑥⑥①① |③-④-|
④④⑦⑦ |⑤-⑥-|
⑧⑧③③ |⑦-⑧-|
42
③口⑤口 |①-②-|
口④②① |③-④⑤|
①②口口 |----|
口口口③ |----|
43
①②③④ |①-②-|
口口口口 |③-④-|
口口口口
④③②①

口口⑧口
⑤口口⑤
口⑥⑦口 |⑤-⑥⑦|
口口口口 |--⑧-|
44
口①口口 |①-②-|
②口口口 |③-④-|
③⑥⑦口 |⑤-⑥⑦|
口④⑤口 |----|
45
②②⑤⑤ |①-②-|
⑥⑥①① |③-④-|
④④⑦⑦ |⑤-⑥-|
⑧⑧③③ |⑦-⑧-|
46
③④口口 |①-②-|
口④②① |③---|
①②④口 |④---|
口口④③ |----|
47
口口口口 |①-②③|
⑨⑤④⑩ |④⑤--|
⑦③②⑧ |⑥-⑦⑧|
①口口⑥ |⑨⑩--|
48
⑨口口⑨ |①-②③|
⑧⑤④⑧ |④⑤--|
⑦③②⑦ |⑥-⑦-|
①⑥⑥口 |⑧-⑨-|
49
口口口口 |①-②③|
⑨⑤④⑩ |④⑤--|
⑦③②⑧ |⑥-⑦⑧|
①口口⑥ |⑨⑩--|
50
口口口口 |①-②③|
口⑤④口 |④⑤--|
口③②口
①口口口

口⑧⑧口
⑥口口⑥
口⑨⑨口 |⑥-⑦-|
口⑦⑦口 |⑧-⑨-|
51
⑦⑨⑪② |①②③④|
⑤⑮⑬④ |⑤⑥⑦⑧|
③⑭⑯⑥ |⑨⑩⑪⑫|
①⑫⑩⑧ |⑬⑭⑮⑯|
52
口口口口 |①-②-|
口⑦⑥口 |③-④-|
③⑤⑧④ |⑤⑥-⑦|
①口口② |--⑧-|
53
⑦⑨⑪② |①②③④|
⑤⑮⑬④ |⑤⑥⑦⑧|
③⑭⑯⑥ |⑨⑩⑪⑫|
①⑫⑩⑧ |⑬⑭⑮⑯|
54
口口口口 |①-②-|
口⑦⑥口 |③-④-|
③⑤⑧④ |⑤⑥-⑦|
①口口② |--⑧-|
55
口⑦⑥口 |①-②-|
③⑤⑧④ |③-④-|
①口口② |⑤⑥-⑦|
口口口口 |--⑧-|
56
口口口口 |①---|
口口口口 |----|
①①①① |----|
口口口口 |----|


不确定度: 0

最終更新:2012年11月23日 02:13