星に願いを
flumpool

BASIC

Level: 2
BPM: 137
Notes: 118

1
口①口口 |----|
口口口口 |----|
口口口口 |----|
口口口口 |①---|
2
口口口口 |①---|
①②口口 |----|
口口口口 |②---|
口口口口 |----|
3
口口口口 |①---|
口口口口 |②---|
口①②口 |----|
口口口口 |----|
4
口口口口 |①---|
口口口口 |----|
②口①口 |②---|
口口口口 |----|
5
口口口口 |①---|
口口口口 |----|
口①口② |②---|
口口口口 |----|
6
口口口口 |①---|
①口口口 |----|
口②口口 |②---|
口口口口 |----|
7
口口口口 |①---|
口口①② |②---|
口口口口 |----|
口口口口 |----|
8
口口口口 |①---|
口①①口 |----|
口口口口 |----|
口口口口 |----|
9
口口口口 |①---|
口②口口 |----|
口①①口 |----|
口口口口 |②---|
10
口口口口 |①---|
口口①口 |----|
口口②口 |----|
口口口口 |②---|
11
口口口口 |①---|
口口口口 |----|
口①口口 |----|
口②口口 |②---|
12
口口口口 |①---|
口口口口 |----|
口口口② |②---|
口口①口 |----|
13
口口口口 |①---|
口口②口 |----|
①口口口 |----|
口口口口 |②---|
14
口口口口 |①---|
口①口口 |----|
口口口口 |----|
口②口口 |②---|
15
口口口口 |①---|
口口口口 |----|
口口②口 |②---|
口口①口 |----|
16
口口口口 |①---|
口②口口 |----|
①口口口 |②---|
口口口口 |----|
17
口口②口 |①---|
口口口① |----|
口口口口 |----|
口口口口 |②---|
18
口口口口 |①---|
口②口① |----|
口口口口 |----|
口口口口 |②---|
19
口口口口 |①---|
口口口口 |----|
①口②口 |----|
口口口口 |②---|
20
口口口口 |①---|
口口口口 |----|
口口口口 |②---|
口②口① |----|
21
口口口口 |①---|
口②口口 |----|
①口口口 |----|
口口口口 |②---|
22
口口口口 |①---|
口口①口 |----|
口②口口 |----|
口口口口 |②---|
23
口口口口 |①---|
口口②口 |----|
口口①口 |②---|
口口口口 |----|
24
②口口① |①---|
口口口口 |----|
口口口口 |②---|
口口口口 |----|
25
口口口口 |①---|
口①①口 |----|
口口口口 |----|
口口口口 |----|
26
口口口口 |①---|
口②口口 |----|
口①口口 |②---|
口口口口 |----|
27
口①②口 |①---|
口口口口 |----|
口口口口 |②---|
口口口口 |----|
28
口口口口 |①---|
口口①口 |----|
口口②口 |②---|
口口口口 |----|
29
口口口口 |①---|
口口口② |----|
口口口① |②---|
口口口口 |----|
30
口②口口 |①---|
①口口口 |----|
口口口口 |②---|
口口口口 |----|
31
口口①口 |①---|
口口口口 |----|
口口口② |②---|
口口口口 |----|
32
口口口口 |①---|
口口口口 |----|
①口口口 |②---|
口②②口 |----|
33
口②口口 |----|
①口口口 |----|
口口口口 |①---|
口口口口 |②---|
34
口口①口 |①---|
口口③口 |----|
口口口② |②---|
口口口口 |③---|
35
口口口口 |①---|
口①口口 |②---|
②口口口 |③---|
口③④口 |④---|
36
口口口口 |①---|
口②③口 |----|
口口①口 |②---|
口口口口 |③---|
37
口口口口 |①---|
口口口口 |②---|
③②①口 |③---|
口口口口 |----|
38
①②③④ |①---|
口口口口 |②---|
口口口口 |③---|
口口口口 |④---|
39
口口口口 |①---|
口口口① |②---|
口口口② |③---|
口口④③ |④---|
40
口口口口 |①---|
口口口口 |----|
②口口口 |②---|
口①口口 |----|
41
口④口口 |①---|
③①②口 |②---|
口口口口 |③---|
口口口口 |④---|
42
口口①口 |①---|
口口③口 |----|
口口口② |②---|
口口口口 |③---|
43
口口口口 |①---|
口①口口 |②---|
②口口口 |③---|
口③④口 |④---|
44
口口口口 |①---|
口②③口 |----|
口口①口 |②---|
口口口口 |③---|
45
口口口口 |①---|
口口口口 |②---|
③②①口 |③---|
口口口口 |----|
46
①②③④ |①---|
口口口口 |②---|
口口口口 |③---|
口口口口 |④---|
47
口口口口 |①---|
口口口① |②---|
口口口② |③---|
口口④③ |④---|
48
口口口口 |①---|
口口口口 |----|
②口口口 |②---|
口①口口 |----|
49
口口口口 |①---|
口口口口 |----|
口口①口 |----|
口口口口 |----|


不确定度: 0

最終更新:2012年11月23日 02:12