星に願いを
flumpool

ADVANCED

Level: 4
BPM: 137
Notes: 251

1
口口口口 |----|
口口口口 |----|
口②②口 |①---|
①口口① |②---|
2
③④⑤口 |①---|
②①①口 |②---|
口口口口 |③-④-|
口口口口 |⑤---|
3
口口口口 |①---|
②②口口 |②---|
口口①① |----|
口口口口 |----|
4
③④⑤⑥ |①---|
口①①口 |②---|
口②②口 |③-④-|
口口口口 |⑤-⑥-|
5
口口口口 |①-②-|
①口口② |--③-|
③③④④ |--④-|
口口口口 |----|
6
③④⑤口 |①---|
口①①口 |②---|
口口口口 |③-④-|
口②②口 |⑤---|
7
⑤⑤口口 |①---|
②②④④ |②---|
③③①① |--③-|
口口口口 |④-⑤-|
8
口口口口 |----|
口口口口 |----|
口口口口 |----|
口口口口 |----|
9
口④口口 |①---|
③口⑤口 |②---|
口①①口 |--③-|
口②②口 |④-⑤-|
10
口口②口 |----|
口①口③ |----|
口口口口 |--①-|
口口口口 |②-③-|
11
口口口口 |----|
口②口口 |----|
①口③口 |--①-|
口口口口 |②-③-|
12
口口口口 |--①-|
口口⑦⑥ |②-③-|
口①口⑤ |④-⑤-|
口②③④ |⑥-⑦-|
13
口口③口 |--①-|
①②口④ |----|
口口口口 |--②-|
口口口口 |③-④-|
14
口口口口 |----|
口口口口 |----|
口③口口 |--①-|
口①②口 |②-③-|
15
口口口口 |----|
③①②④ |①-②-|
口口口口 |--③-|
口口口口 |--④-|
16
④口口④ |----|
③口口③ |①-②-|
口①②口 |--③-|
口口口口 |--④-|
17
口②口口 |----|
①口③口 |----|
口口口口 |--①-|
口口口口 |②-③-|
18
口口②口 |----|
口①口③ |----|
口口口口 |--①-|
口口口口 |②-③-|
19
口口口口 |----|
口②口口 |----|
①口③口 |--①-|
口口口口 |②-③-|
20
口口口口 |--①-|
口口⑦⑥ |②-③-|
口①口⑤ |④-⑤-|
口②③④ |⑥-⑦-|
21
口口③口 |--①-|
①②口④ |----|
口口口口 |--②-|
口口口口 |③-④-|
22
口口口口 |----|
口口口口 |----|
口③口口 |--①-|
口①②口 |②-③-|
23
口①②口 |----|
③口④口 |①-②-|
口口口口 |--③-|
口口口口 |--④-|
24
口口口口 |①---|
口口口① |②-③-|
口②③口
口口口口

⑤口口⑤
④口口④
口口口口 |--④-|
口口口口 |--⑤-|
25
口口口口 |----|
口口口口 |----|
口口口口 |----|
口口口口 |----|
26
①口口⑧ |①-②-|
口②⑦口 |③-④-|
口⑥③口 |⑤-⑥-|
口⑤④口 |⑦-⑧-|
27
口口①口 |①---|
口口口口 |--②-|
⑤⑤口口 |③-④-|
口②③④ |⑤---|
28
④④口口 |①---|
②②③③ |②---|
口口①① |③---|
口口口口 |④---|
29
口口①① |①---|
口③③口 |--②-|
口②②口 |----|
口口口口 |③---|
30
口口口口 |①---|
①口口① |--②-|
④②③口 |③---|
口口口口 |④---|
31
口口口口 |①---|
口口口口 |②-③-|
口口口① |----|
④②③④ |④---|
32
口③③口 |①---|
②口口② |②-③-|
①口口① |----|
口口口口 |----|
33
口口口口 |----|
口口口口 |----|
口③④口 |①-②-|
口①②口 |③-④-|
34
口口口口 |①---|
①口口① |----|
口④⑤口 |②-③-|
口②③口 |④-⑤-|
35
口③口口 |①-②-|
口①②口 |③---|
口口口口
口口口口

口口口口
口⑤⑥口
④口口④ |④---|
口口口口 |⑤-⑥-|
36
①口口① |①---|
口口口口 |----|
口③口⑤ |②-③-|
②口④口 |④-⑤-|
37
口口口口 |①-②-|
③②①口 |③---|
口④⑤口 |④-⑤-|
口口口口 |----|
38
口口口① |①---|
口③②口 |②-③-|
④口口口 |--④-|
口⑤口口 |--⑤-|
39
口⑤口口 |①---|
口口口④ |②-③-|
口②③口 |--④-|
口口①口 |--⑤-|
40
口口①口 |①---|
②口口② |②---|
口③④口 |③-④-|
口⑤⑥口 |⑤-⑥-|
41
口口口口 |①-②-|
口口口口 |----|
①⑤⑥② |③-④-|
口③④口 |⑤-⑥-|
42
口口口口 |①---|
①口口① |----|
口④⑤口 |②-③-|
口②③口 |④-⑤-|
43
口③口口 |①-②-|
口①②口 |③---|
口口口口
口口口口

口口口口
口⑥⑦口
④口口⑤ |④-⑤-|
口口口口 |⑥-⑦-|
44
①口口① |①---|
口口口口 |----|
口③口⑤ |②-③-|
②口④口 |④-⑤-|
45
口口口口 |①-②-|
③②①口 |③-④-|
④⑤⑥口 |⑤-⑥-|
口口口口 |----|
46
口口口① |①---|
口③②口 |②-③-|
④口口口 |--④-|
口⑤口口 |--⑤-|
47
口⑤口口 |①---|
口口口④ |②-③-|
口②③口 |--④-|
口口①口 |--⑤-|
48
口口①口 |①---|
口口口口 |----|
口口口口
口口口口

口③④口
②口口⑤
口口口口 |②-③-|
口口口口 |④-⑤-|


不确定度: 0

最終更新:2012年11月23日 02:11