星に願いを
flumpool

EXTREME

Level: 7
BPM: 137
Notes: 395

1
③口口④ |----|
口②②口 |----|
口①①口 |①-②-|
口口口口 |③-④-|
2
口口口口 |①-②-|
①口口② |③-④-|
③口口④ |⑤-⑥-|
⑤⑥⑦⑧ |⑦-⑧-|
3
③口②② |①---|
①①口④ |②---|
口口口口 |③---|
口口口口 |④---|
4
口口口口 |①-②-|
⑤口⑦⑧ |③-④-|
③⑥口④ |⑤-⑥-|
①口口② |⑦-⑧-|
5
口口①口 |①-②-|
口②口口 |--③-|
④④口口 |--④-|
口口③③ |----|
6
③口口④ |①-②-|
①口口② |③-④-|
⑤口⑦口 |⑤-⑥-|
口⑥口⑧ |⑦-⑧-|
7
口口②② |①---|
①①口口 |②---|
口口口口
口口口口

⑥口口⑥
⑤⑥⑥⑤
④⑤⑤④ |③-④-|
③④④口 |⑤-⑥-|
8
口口口口 |①---|
③④④口 |②---|
口口口口 |③---|
口②②① |④---|
9
⑤②③口 |①-②-|
口⑥口口 |③---|
①①①① |④-⑤-|
口④④⑦ |⑥-⑦-|
10
口①①④ |①---|
口口⑤口 |②---|
口②③口 |③-④-|
⑥口口口 |⑤-⑥-|
11
口①①口 |①---|
口口口口 |②---|
口②口口
口口口口

口④口口
口⑤口口
口口③口 |③-④-|
口⑥口口 |⑤-⑥-|
12
口口口口 |--①-|
口口③口 |②-③-|
口口口②
口口①口

口④口口
⑤口口口
口⑥口口 |④-⑤-|
口口⑦口 |⑥-⑦-|
13
口口口④ |--①-|
口①⑤口 |②---|
口③②口 |③-④-|
⑥口口口 |⑤-⑥-|
14
口①①口 |①---|
口口口口 |②---|
口②口口
口口口口

口口⑥口
⑤口口口
口口③口 |③-④-|
口口口④ |⑤-⑥-|
15
③④口口 |----|
口口⑤口 |①-②-|
口口口口 |-③④-|
口①②口 |--⑤-|
16
口④④口 |----|
口口口③ |①-②-|
①②口口 |--③-|
口口口口 |--④-|
17
④口口口 |①---|
口⑤口口 |②---|
口②③口 |③-④-|
口①①⑥ |⑤-⑥-|
18
口①①④ |①---|
口口⑤口 |②---|
口③②口 |③-④-|
⑥口口口 |⑤-⑥-|
19
口③口口 |----|
口④口口 |①---|
口①②口 |②-③-|
口⑤口口 |④-⑤-|
20
口口口口 |--①-|
口口③口 |②-③-|
口口口②
口口①口

口④口口
⑤口口口
口⑥口口 |④-⑤-|
口口⑦口 |⑥-⑦-|
21
口口口④ |--①-|
口①⑤口 |②---|
口③②口 |③-④-|
⑥口口口 |⑤-⑥-|
22
口口⑤口 |----|
④口口口 |①---|
口①②口 |②-③-|
口口口③ |④-⑤-|
23
口④③口 |----|
口⑤⑥口 |①-②-|
口口口口 |③-④-|
口①②口 |⑤-⑥-|
24
口⑤⑤口 |①---|
口口口④ |②-③-|
②③口① |--④-|
口口口口 |--⑤-|
25
口口口口 |----|
口①口口 |①---|
口口②口 |②---|
口③口口 |③---|
26
口③⑦口 |①-②-|
⑥口口④ |③-④-|
②口口⑧ |⑤-⑥-|
口⑤①口 |⑦-⑧-|
27
口口口口 |①---|
口④⑤⑤ |②-③-|
口①③口 |④---|
口②口口 |⑤---|
28
①①口口 |①---|
④④口口 |②---|
②②口口 |③---|
口口③③ |④---|
29
口②②口 |①---|
③口口③ |②-③-|
口口①①
口口口口

⑥⑦口⑥
口口口口
口④⑤口 |④-⑤-|
口口口口 |⑥-⑦-|
30
口口①口 |①---|
口②②口 |②-③-|
⑤⑤口口 |④---|
口③④口 |⑤---|
31
口口口口 |①---|
口②③口 |②-③-|
口口①①
口口口口

口口口口
口口口口
口④④口 |----|
④口口④ |④---|
32
②②③③ |①---|
口①①口 |②-③-|
①口口① |----|
口④④口 |④---|
33
①⑦口⑥ |①-②-|
口⑦②⑥ |③-④-|
⑤③⑧口 |⑤-⑥-|
⑤口⑧④ |⑦-⑧-|
34
⑥⑤④③ |①---|
②口①口 |②---|
口①口② |③-④-|
③④⑤⑥ |⑤-⑥-|
35
口口口③ |①-②-|
①口⑥② |③---|
②⑤口① |④---|
③④④口 |⑤-⑥-|
36
口①①⑥ |①---|
②⑤口② |②---|
口口④口 |③-④-|
③口口口 |⑤-⑥-|
37
⑥口口⑥ |①-②-|
③口⑤⑤ |③---|
④④口② |④-⑤-|
口①口口 |⑥---|
38
口①④口 |①---|
①②③⑤ |②-③-|
⑥口口口 |④-⑤-|
口⑦口口 |⑥-⑦-|
39
口口口口 |①---|
口口口口 |②-③-|
口②③口
口口①口

口口口口
④口口④
⑥⑥口口 |--④-|
⑤口口口 |⑤-⑥-|
40
②②②② |①---|
口口口口 |②---|
口口①①
口口口口

口口口口
口口口口
④⑥⑥④ |③-④-|
③⑤⑤③ |⑤-⑥-|
41
口②③口 |①-②-|
口①①口 |③---|
口口口口
口口口口

口⑥口⑤
口⑥口⑤
④口⑦口 |④-⑤-|
④口⑦口 |⑥-⑦-|
42
⑥⑤④③ |①---|
②口①口 |②---|
口①口② |③-④-|
③④⑤⑥ |⑤-⑥-|
43
口口口③ |①-②-|
①口⑦② |③---|
②⑥口① |④-⑤-|
③④⑤口 |⑥-⑦-|
44
②①①② |①---|
口口口口 |②---|
口口口口
口口口口

口口口⑥
口⑤口口
口口④口 |③-④-|
③口口口 |⑤-⑥-|
45
口口④口 |①-②-|
③口⑥⑥ |③-④-|
⑤⑤口② |⑤-⑥-|
口①口口 |----|
46
口①④口 |①---|
①②③④ |②-③-|
口口口口 |--④-|
口⑤口口 |--⑤-|
47
口口口口 |①---|
口口口口 |②-③-|
口②③口
口口①口

口口口口
④口口④
⑤⑤口口 |--④-|
口口口口 |--⑤-|
48
口口口口 |①---|
口口口口 |②---|
口口①①
口②②口

③口口⑥
④口口⑤
⑤口口④ |③-④-|
⑥口口③ |⑤-⑥-|
49
口口口口 |----|
③口口④ |----|
⑤②②⑥ |①-②-|
口①①口 |③④⑤⑥|


不确定度: 0

最終更新:2012年11月23日 02:11