Riot of Color
TAG

BASIC

Level: 5
BPM: 150
Notes: 291

1
口口口口 |----|
口口口口 |----|
口口口口 |----|
口口口口 |----|
2
口口口口 |①---|
口①②口 |--②-|
口口③口 |----|
口口口口 |③---|
3
②口口② |--①-|
③口口③ |----|
口①口口 |②---|
口口口口 |③---|
4
口口口口 |①---|
口①②口 |--②-|
口口③口 |----|
口口口口 |③---|
5
②口口③ |--①-|
②口口③ |----|
口①口口 |②---|
口口口口 |③---|
6
口口口口 |①---|
口①②口 |--②-|
口口③口 |----|
口口口口 |③---|
7
②口口② |--①-|
③口口③ |----|
口①口口 |②---|
口口口口 |③---|
8
口口口口 |①---|
口①②口 |--②-|
口口③口 |----|
口口口口 |③---|
9
②口口③ |--①-|
②口口③ |----|
口①口口 |②---|
口口口口 |③---|
10
口口口口 |①--②|
口口口口 |--③-|
口口③口 |----|
口①②口 |----|
11
口①①口 |--①-|
②口口② |---②|
口口口口 |----|
口口口口 |----|
12
口口口口 |①--②|
口口口口 |--③-|
口口③口 |----|
口①②口 |----|
13
③口口③ |--①-|
②口口② |----|
口口口口 |②---|
口①①口 |③---|
14
口口口口 |①--②|
口口口口 |--③-|
口口③口 |----|
口①②口 |----|
15
口①①口 |--①-|
②口口② |---②|
口口口口 |----|
口口口口 |----|
16
口口③口 |①--②|
口①②口 |--③-|
④口口④ |----|
口口口口 |④---|
17
①②②① |①---|
口③③口 |----|
口口口口 |②---|
口口口口 |③---|
18
口口口口 |①---|
口口口口 |----|
①口口② |②---|
口口口口 |----|
19
口口口口 |①---|
口①①口 |----|
口①①口 |----|
口口口口 |----|
20
口口口口 |①---|
口口口口 |----|
口口口口 |②---|
口①②口 |----|
21
③口口③ |①--②|
口②②口 |----|
口①①口 |③---|
口口口口 |----|
22
口口口口 |①---|
口口口口 |----|
①口口② |②---|
口口口口 |----|
23
①②②① |①---|
口①①口 |----|
口口口口 |②---|
口口口口 |----|
24
口口口口 |①---|
口口口口 |----|
口口口口 |②---|
口①②口 |----|
25
③口口③ |①--②|
口②②口 |----|
口①①口 |③---|
口口口口 |----|
26
口口口口 |①--②|
口①②口 |--③-|
口口③口
口口口口

口口口口
口⑤⑥口
口④口口 |-④--|
口口口口 |⑤--⑥|
27
④口口④ |--①-|
口③口口 |-②--|
口②①口 |③--④|
口口口口 |----|
28
口口口口 |①--②|
口③口口 |--③-|
口②①口
口口口口

口口口口
口口④口
口⑥⑤口 |-④--|
口口口口 |⑤--⑥|
29
口口口口 |--①-|
口①②口 |-②--|
口口③口 |③--④|
④口口④ |----|
30
口口口口 |①--②|
口①②口 |--③-|
口口③口
口口口口

口口口口
口⑤⑥口
口④口口 |-④--|
口口口口 |⑤--⑥|
31
④口口④ |--①-|
口③口口 |-②--|
口②①口 |③--④|
口口口口 |----|
32
口口口口 |①--②|
口③口口 |--③-|
口②①口
口口口口

口口口口
口口④口
口⑥⑤口 |-④--|
口口口口 |⑤--⑥|
33
口口口口 |--①-|
口①②口 |-②--|
④口口④ |③---|
③口口③ |④---|
34
口①①口 |①---|
口③③口 |----|
口口口口 |--②-|
口②②口 |--③-|
35
①口口① |①---|
口口口口 |----|
口口口口 |②---|
口②②口 |----|
36
口①①口 |①---|
②口口③ |--②-|
口口口口 |③---|
口口口口 |----|
37
口口口口 |①---|
口口口口 |②---|
①②③④ |③---|
口口口口 |④---|
38
③口口口 |①---|
口①①口 |----|
口口口口 |--②-|
口②②口 |--③-|
39
口口口① |①---|
口口口口 |----|
口③③口 |②---|
口②②口 |③---|
40
②口口口 |①---|
口①①口 |--②-|
口口口口
口口口口

口口口③
口④口口
口口口口 |③---|
口口口口 |--④-|
41
口口口口 |①---|
口口①口 |--②-|
口②③口 |③---|
口口口口 |----|
42
口③③口 |①--②|
②口口② |--③-|
口口口口 |----|
①口口① |----|
43
口口口口 |--①-|
口②②口 |----|
口口口口 |②---|
口①①口 |----|
44
①口口① |①---|
口口口口 |----|
口口口口 |----|
口口口口 |----|
45
口口口口 |----|
口③③口 |①---|
口②②口 |②---|
口①①口 |③---|
46
①①①① |①--②|
口口口口 |--③-|
②口口② |----|
口③③口 |----|
47
口②②口 |--①-|
口口口口 |----|
口口口口 |②---|
口①①口 |----|
48
口口口口 |①---|
①口口① |----|
①口口① |----|
口②②口 |②---|
49
②口口③ |①--②|
口①①口 |--③-|
口④④口 |④---|
口⑤⑤口 |⑤---|
50
口①①口 |①---|
口口口口 |----|
口口口口 |----|
口口口口 |----|
51
口口口口 |①---|
①口口② |----|
①口口② |②---|
口口口口 |----|
52
口口①口 |----|
口②③口 |①---|
口口口口 |②---|
口口口口 |③---|
53
口口口口 |①---|
口口口口 |②---|
口①②口 |③---|
口③口口 |----|
54
口口口口 |①---|
口②②口 |----|
口①①口 |②---|
口口口口 |----|
55
②①①② |①---|
口口口口 |----|
口口口口 |②---|
口口口口 |----|
56
口③③口 |①--②|
②口口② |--③-|
④⑤⑥口 |--④-|
口①①口 |⑤-⑥-|
57
③口口③ |①---|
口口口口 |----|
口口口① |②---|
②口口② |③---|
58
口口口口 |①---|
口①②口 |--②-|
口口③口 |----|
口口口口 |③---|
59
②口口② |--①-|
③口口③ |----|
口①口口 |②---|
口口口口 |③---|
60
口口口口 |①---|
口①②口 |--②-|
口口③口 |----|
口口口口 |③---|
61
②口口③ |--①-|
②口口③ |----|
口①口口 |②---|
口口口口 |③---|
62
口口口口 |①---|
口①②口 |--②-|
口口③口 |----|
口口口口 |③---|
63
②口口② |--①-|
③口口③ |----|
口①口口 |②---|
口口口口 |③---|
64
口口口口 |①---|
口①②口 |--②-|
口口③口 |----|
口口口口 |③---|
65
②口口③ |--①-|
②口口③ |----|
口①口口 |②---|
口口口口 |③---|
66
口口口口 |----|
口①①口 |--①-|
口①①口 |----|
口口口口 |----|

不确定度: 0

最終更新:2012年11月06日 22:30