明日ハレルヤ!
岡本真夜×大橋卓弥(fromスキマスイッチ)

ADVANCED

Level: 5
BPM: 122
Notes: 333

1
口口口口 |----|
口口口口 |----|
口口口口 |----|
口口口口 |----|
2
口口口口 |①-②-|
⑤⑦⑧⑥ |③-④-|
口③④口 |⑤-⑥-|
①口口② |⑦-⑧-|
3
口口口口 |--①-|
口⑥⑤④ |②-③-|
①②③口 |--④-|
口口口口 |⑤-⑥-|
4
⑤⑥口口 |--①-|
④口口口 |②-③-|
①②③口 |--④-|
口口口口 |⑤-⑥-|
5
口口①② |①-②-|
口口口③ |③-④-|
口口口④ |----|
口口口口 |----|
6
口口口口 |①---|
③④⑤⑥ |②---|
口①②口 |③-④-|
口口口口 |⑤-⑥-|
7
口口口口 |--①-|
口⑥⑤④ |②-③-|
①②③口 |--④-|
口口口口 |⑤-⑥-|
8
口口口口 |①---|
①⑥⑥口 |②-③-|
④口口⑤ |--④-|
口②③口 |⑤-⑥-|
9
③口口③ |----|
②口口② |----|
①口口① |--①-|
口口口口 |②-③-|
10
口口口口 |----|
口②③口 |①---|
④①①口 |②-③-|
口口口口 |--④-|
11
口口口口 |--①-|
口口口口 |②-③-|
口②①③ |----|
口④④口 |④---|
12
口口口口 |①---|
口②口口 |②---|
口①①口
口口口口

口口口口
口口③口
口口④⑤ |③---|
口口口口 |④-⑤-|
13
口口口口 |--①-|
口②①③ |②-③-|
口口口口 |----|
口口口口 |----|
14
口口口口 |①---|
口口②① |②---|
③④⑤⑥ |③-④-|
口口口口 |⑤-⑥-|
15
口⑦⑥⑤ |--①-|
①②③④ |②-③-|
口口口口 |④-⑤-|
口口口口 |⑥-⑦-|
16
口口口口 |--①-|
④③②① |②-③-|
⑤⑥⑦口 |④-⑤-|
口口口口 |⑥-⑦-|
17
口口口口 |--①-|
口①②③ |②-③-|
口口口口 |----|
口口口口 |----|
18
口口口口 |①-②-|
③②①口 |③---|
口④⑤⑥ |④-⑤-|
口口口⑦ |⑥-⑦-|
19
口⑦⑥⑤ |--①-|
①②③④ |②-③-|
口口口口 |④-⑤-|
口口口口 |⑥-⑦-|
20
口口口口 |----|
口③②口 |--①-|
口口①口 |----|
口口口口 |②-③-|
21
口口口口 |----|
口口口口 |----|
口②②口 |①---|
口①①口 |②---|
22
口口口口 |①---|
口②口① |②---|
④口③⑤ |③-④-|
口⑥口口 |⑤-⑥-|
23
口口口口 |----|
①口②③ |①---|
④口口⑤ |②-③-|
口口口口 |④-⑤-|
24
口口口口 |--①-|
①③④② |②-③-|
⑤口口⑥ |④-⑤-|
口口⑦口 |⑥-⑦-|
25
口口口口 |--①-|
口③②① |②-③-|
口⑤⑥④ |--④-|
口口口口 |⑤-⑥-|
26
口口口口 |----|
①口口② |①---|
口③口口 |②-③-|
口⑤④口 |④-⑤-|
27
口④⑤口 |--①-|
口②③⑥ |②-③-|
口口①⑦ |④-⑤-|
口口口口 |⑥-⑦-|
28
口口口口 |----|
③⑤④口 |①-②-|
口②①口 |--③-|
口口口口 |④-⑤-|
29
口口口口 |----|
口口口口 |----|
口口口口 |----|
口口口口 |----|
30
口口口口 |--①-|
口口⑤⑥ |②-③-|
口口③④ |④---|
口口①② |⑤-⑥-|
31
口①①口 |--①-|
②③口口 |②-③-|
④⑤口口 |④-⑤-|
⑥⑦口口 |⑥-⑦-|
32
口口口① |--①-|
口口⑤② |②-③-|
口口⑥③ |④---|
口口口④ |⑤-⑥-|
33
④③口口 |--①-|
⑤②口口 |②-③-|
⑥①口口 |④-⑤-|
⑦口口口 |⑥-⑦-|
34
口口口口 |--①-|
口口⑤⑥ |②-③-|
口口③④ |④---|
口口①② |⑤-⑥-|
35
口②①口 |--①-|
③口口口 |--②-|
⑤④口口 |③-④-|
口⑥⑥口 |⑤-⑥-|
36
口口口口 |----|
口⑤⑤口 |--①-|
①②③④ |②-③-|
口口口口 |④-⑤-|
37
口③口口 |----|
口口②口 |①---|
口①口口 |②---|
口口口口 |③---|
38
口④④口 |①---|
口③③口 |②---|
口②②口 |③---|
口①①口 |④---|
39
口口口口 |①-②-|
⑤⑦⑧⑥ |③-④-|
口③④口 |⑤-⑥-|
①口口② |⑦-⑧-|
40
口口口口 |--①-|
口⑥⑤④ |②-③-|
①②③口 |--④-|
口口口口 |⑤-⑥-|
41
⑤⑥口口 |--①-|
④口口口 |②-③-|
①②③口 |--④-|
口口口口 |⑤-⑥-|
42
口口①② |①-②-|
口口口③ |③-④-|
口口口④ |----|
口口口口 |----|
43
口口口口 |①---|
③④⑤⑥ |②---|
口①②口 |③-④-|
口口口口 |⑤-⑥-|
44
口口口口 |--①-|
口⑥⑤④ |②-③-|
①②③口 |--④-|
口口口口 |⑤-⑥-|
45
口口口口 |①---|
①⑥⑥口 |②-③-|
④口口⑤ |--④-|
口②③口 |⑤-⑥-|
46
口口口口 |----|
口口口口 |----|
口①②口 |①---|
口口口口 |②---|
47
口口口口 |①-②-|
⑤⑦⑧⑥ |③-④-|
口③④口 |⑤-⑥-|
①口口② |⑦-⑧-|
48
口口口口 |--①-|
口⑥⑤④ |②-③-|
①②③口 |--④-|
口口口口 |⑤-⑥-|
49
⑤⑥口口 |--①-|
④口口口 |②-③-|
①②③口 |--④-|
口口口口 |⑤-⑥-|
50
口口①② |①-②-|
口口口③ |③-④-|
口口口④ |----|
口口口口 |----|
51
口口口口 |①---|
④⑤⑥口 |②-③-|
①口②③ |--④-|
口口口口 |⑤-⑥-|
52
口口口口 |----|
口⑤④③ |①-②-|
口①②口 |--③-|
口口口口 |④-⑤-|
53
口口口口 |①---|
①⑥⑥口 |②-③-|
口④⑤口 |--④-|
口②③口 |⑤-⑥-|
54
③口口③ |----|
②口口② |----|
①口口① |--①-|
口口口口 |②-③-|
55
口口口口 |----|
口②③口 |①---|
④①①口 |②-③-|
口口口口 |--④-|
56
口口口口 |--①-|
口口口口 |②-③-|
口②①③ |----|
口④④口 |④---|
57
口口口口 |①---|
口②口口 |②---|
口①①口
口口口口

口口口口
口口③口
口口④⑤ |③---|
口口口口 |④-⑤-|
58
口口口口 |--①-|
口②①③ |②-③-|
口口口口 |----|
口口口口 |----|
59
口口口口 |①---|
口口口② |②---|
①口口口
口口口口

③口口口
口口口口
④④④④ |③---|
口口口口 |④---|
60
口口口口 |--①-|
①①①① |----|
口口口口 |----|
口口口口 |----|


不确定度: 0

最終更新:2012年11月23日 02:08