明日ハレルヤ!
岡本真夜×大橋卓弥(fromスキマスイッチ)

EXTREME

Level: 6
BPM: 122
Notes: 510

1
口口口口 |----|
口口口口 |----|
口口口口 |----|
口口口口 |----|
2
⑤口口④ |①-②-|
③口口⑥ |③-④-|
⑦口口② |⑤-⑥-|
①口口⑧ |⑦-⑧-|
3
口③③口 |--①-|
口②②口 |②-③-|
口①①口
口口口口

口口口口
⑥⑥口口
口口⑤⑤ |--④-|
④④口口 |⑤-⑥-|
4
④⑤⑥口 |--①-|
口口③③ |②-③-|
②②口口 |--④-|
口口①① |⑤-⑥-|
5
口口口口 |①-②-|
①②②① |③-④-|
③④④③
口口口口

⑥口口⑦
口口口口
⑧口口口 |⑤-⑥-|
口口口⑤ |⑦-⑧-|
6
③口口口 |①---|
②口口④ |②---|
⑤口口口 |③-④-|
①口口⑥ |⑤-⑥-|
7
口③③口 |--①-|
口②②口 |②-③-|
口①①口
口口口口

口口口口
口口口口
口⑥口口 |--④-|
口④⑤口 |⑤-⑥-|
8
口②③口 |①---|
②①①③ |②-③-|
⑥④⑤⑥ |--④-|
④⑥⑥⑤ |⑤-⑥-|
9
③③③③ |----|
②②②② |----|
①①①① |--①-|
口口口口 |②-③-|
10
口口口口 |----|
口口③③ |①---|
①①②② |②-③-|
口口④④ |--④-|
11
口口③口 |--①-|
口②口口 |②-③-|
①口口口
口口口口

口口口口
口⑨⑧⑦
口④⑤⑥ |④⑤⑥-|
口口口口 |⑦⑧⑨-|
12
①①口口 |①---|
口口口口 |②---|
③③②② |③---|
④⑤⑤④ |④-⑤-|
13
口③③口 |--①-|
口②②口 |②-③-|
口①①口
口口口口

口口口口
口口口口
口⑨⑧⑦ |④⑤⑥-|
口⑥⑤④ |⑦⑧⑨-|
14
口口②口 |①-②-|
⑤③⑦① |③-④-|
④⑥口⑧ |⑤-⑥-|
口口口口 |⑦-⑧-|
15
口②口口 |--①-|
①口③口 |②-③-|
口口口口
口口口口

口口口口
⑦口口口
口⑥口④ |④-⑤-|
口口⑤口 |⑥-⑦-|
16
口口②口 |--①-|
口③口① |②-③-|
口口口口
口口口口

口口口口
口口⑦⑦
④口⑥口 |④-⑤-|
口⑤口口 |⑥-⑦-|
17
口口③③ |--①-|
②②口口 |②-③-|
①①口口 |----|
口口口口 |----|
18
口②口口 |①-②-|
③口①口 |③---|
口口口口
口口口口

口口口口
口口⑤口
口④口⑥ |④-⑤-|
口口⑦口 |⑥-⑦-|
19
口口口口 |--①-|
①口③口 |②-③-|
口②口口
口口口口

口口⑥口
口口口⑤
口⑦⑦④ |④-⑤-|
口口口口 |⑥-⑦-|
20
口口口口 |----|
③③口口 |--①-|
口口②② |----|
①①口口 |②-③-|
21
口口口口 |----|
口口口口 |----|
②②②② |①---|
①①①① |②---|
22
②④③口 |①---|
口⑥⑤① |②-③-|
口口口⑦ |④-⑤-|
口口口口 |⑥-⑦-|
23
口口口口 |----|
①口口口 |①---|
口⑤④口 |②-③-|
口③口② |④-⑤-|
24
口③口口 |--①-|
①口口② |②-③-|
⑤口④⑥ |④-⑤-|
口⑦⑦口 |⑥-⑦-|
25
口口③③ |--①-|
②②①① |②-③-|
口口口口
口口口口

口口口口
口口口⑥
口口口④ |--④-|
口⑤口口 |⑤-⑥-|
26
口口②口 |----|
①口④口 |①---|
口③口口 |②-③-|
口⑤口口 |④-⑤-|
27
口口⑤口 |--①-|
②④③⑥ |②-③-|
⑦口①口 |④-⑤-|
口口口口 |⑥-⑦-|
28
口口④口 |----|
③口口口 |①-②-|
⑤②①口 |--③-|
口口口口 |④-⑤-|
29
口口口口 |----|
口口口口 |----|
口口口口 |----|
口口口口 |----|
30
口口口口 |--①-|
口口⑤⑥ |②-③-|
口口③④ |④---|
口口①② |⑤-⑥-|
31
⑦⑦①① |--①-|
⑤⑥口口 |②-③-|
③④口口 |④-⑤-|
①②口口 |⑥-⑦-|
32
口口口① |--①-|
口口⑤② |②-③-|
口口⑥③ |④---|
口口口④ |⑤-⑥-|
33
①⑤口口 |--①-|
②⑥口口 |②-③-|
③⑦口口 |④-⑤-|
④口口口 |⑥-⑦-|
34
口口口口 |--①-|
口口⑤⑥ |②-③-|
口口③④ |④---|
口口①② |⑤-⑥-|
35
口口①① |--①-|
口口口口 |--②-|
口口口口
②口口口

⑥⑥⑥⑥
④⑤口口
口③口口 |③-④-|
口口口口 |⑤-⑥-|
36
⑤④④⑤ |----|
③口口③ |--①-|
口②②口 |②-③-|
①口口① |④-⑤-|
37
口口④④ |①---|
③③口口 |②---|
口口②② |③---|
①①口口 |④---|
38
④④④④ |①---|
③③③③ |②---|
②②②② |③---|
①①①① |④---|
39
⑤口口④ |①-②-|
③口口⑥ |③-④-|
⑦口口② |⑤-⑥-|
①口口⑧ |⑦-⑧-|
40
口③③口 |--①-|
口②②口 |②-③-|
口①①口
口口口口

口口口口
⑥⑥口口
口口⑤⑤ |--④-|
④④口口 |⑤-⑥-|
41
④⑤⑥口 |--①-|
口口③③ |②-③-|
②②口口 |--④-|
口口①① |⑤-⑥-|
42
口口口口 |①-②-|
①②②① |③-④-|
③④④③
口口口口

⑥口口⑦
口口口口
⑧口口口 |⑤-⑥-|
口口口⑤ |⑦-⑧-|
43
③口口口 |①---|
②口口④ |②---|
⑤口口口 |③-④-|
①口口⑥ |⑤-⑥-|
44
口③③口 |--①-|
口②②口 |②-③-|
口①①口
口口口口

口口口口
口口口口
口⑥口口 |--④-|
口④⑤口 |⑤-⑥-|
45
口②③口 |①---|
②①①③ |②-③-|
⑥④⑤⑥ |--④-|
④⑥⑥⑤ |⑤-⑥-|
46
口①①口 |----|
④③②口 |--①-|
⑦⑥⑤口 |②③④-|
口口口口 |⑤⑥⑦-|
47
⑤口口④ |①-②-|
③口口⑥ |③-④-|
⑦口口② |⑤-⑥-|
①口口⑧ |⑦-⑧-|
48
口③③口 |--①-|
口②②口 |②-③-|
口①①口
口口口口

口口口口
⑥⑥口口
口口⑤⑤ |--④-|
④④口口 |⑤-⑥-|
49
④⑤⑥口 |--①-|
口口③③ |②-③-|
②②口口 |--④-|
口口①① |⑤-⑥-|
50
口口口口 |①-②-|
①②②① |③-④-|
③④④③
口口口口

⑥口口⑦
口口口口
⑧口口口 |⑤-⑥-|
口口口⑤ |⑦-⑧-|
51
口口口③ |①---|
②口口④ |②-③-|
⑤口口口 |--④-|
①口口⑥ |⑤-⑥-|
52
口③③口 |--①-|
口②②口 |②-③-|
口①①口
口口口口

口口口口
口口口口
口⑥口口 |--④-|
口④⑤口 |⑤-⑥-|
53
口②③口 |①---|
②①①③ |②-③-|
⑥④⑤⑥ |--④-|
④⑥⑥⑤ |⑤-⑥-|
54
③③③③ |----|
②②②② |----|
①①①① |--①-|
口口口口 |②-③-|
55
口口口口 |----|
④口口④ |①---|
口③②口 |②-③-|
①①①① |--④-|
56
⑨⑧⑦口 |--①-|
④⑤⑥口 |②-③-|
口③③口 |④⑤⑥-|
口②①口 |⑦⑧⑨-|
57
口口⑤口 |①---|
④③口② |②---|
①①①① |③-④-|
口口口口 |--⑤-|
58
口口口口 |--①-|
口口口口 |②-③-|
口口口口
③②①口

口口口口
口口口口
口⑥⑤④ |④⑤⑥-|
口⑨⑧⑦ |⑦⑧⑨-|
59
③口口口 |①---|
口口口② |②---|
①口口口 |③---|
④④④④ |④---|
60
口口口口 |--①-|
口口口口 |----|
①①①① |----|
口口口口 |----|


不确定度: 0

最終更新:2012年11月23日 02:07