GyaShan
Lollipop

BASIC

Level: 2
BPM: 108
Notes: 202

1
口口口口 |----|
口口口口 |----|
口口口口 |----|
口口口口 |----|
2
口口口口 |①---|
口②②口 |----|
口①①口 |②---|
口口口口 |----|
3
口口口口 |①---|
②口口② |----|
①口口① |②---|
口口口口 |----|
4
口口口口 |①---|
口口口口 |----|
口口口口 |②---|
①②②① |----|
5
口口口口 |①---|
口②③口 |②---|
①口口④ |③---|
口口口口 |④---|
6
口口口口 |①---|
口口口口 |----|
口②③口 |②---|
口①①口 |③---|
7
口口口口 |①---|
①②③① |----|
口口口口 |②---|
口口口口 |③---|
8
口口口口 |①---|
口口口口 |②---|
①口口④ |③---|
口②③口 |④---|
9
口口口口 |①---|
口②①口 |②---|
③口口口 |③---|
口口口口 |----|
10
口口口口 |①---|
口口口口 |----|
②口口③ |②---|
口①①口 |③---|
11
口口口口 |①---|
②口口③ |----|
口①①口 |②---|
口口口口 |③---|
12
口①②口 |①---|
口口口③ |②---|
口口④口 |③---|
口口口口 |④---|
13
口③④口 |①---|
②口口口 |②---|
口①口口 |③---|
口口口口 |④---|
14
口口口口 |①---|
口①①口 |----|
口口口口 |----|
口口口口 |----|
15
口口口口 |①---|
口口口口 |----|
①口口① |②---|
口②③口 |③---|
16
口口口口 |①---|
②口口③ |----|
口①①口 |②---|
口口口口 |③---|
17
口①①口 |①---|
口②③口 |----|
口口口口 |②---|
口口口口 |③---|
18
口口口口 |①---|
口口口口 |----|
①②③① |②---|
口口口口 |③---|
19
口口口口 |①---|
口口口口 |----|
口口口口 |②---|
①②③① |③---|
20
口口口口 |①---|
②口口③ |----|
口①①口 |②---|
口口口口 |③---|
21
口①①口 |①---|
口②③口 |----|
口口口口 |②---|
口口口口 |③---|
22
口口口口 |①---|
②口口③ |----|
①口口① |②---|
口口口口 |③---|
23
口口口口 |①---|
口②②口 |----|
口①①口 |②---|
口口口口 |----|
24
口①①口 |①---|
口口口口 |----|
口口口口 |----|
口口口口 |----|
25
口口口口 |①---|
口口口口 |----|
②口口② |②---|
①口口① |----|
26
口口口口 |①---|
①口口① |----|
口口口口 |----|
口口口口 |----|
27
口口口口 |①---|
②口口② |----|
口①①口 |②---|
口口口口 |----|
28
口口口口 |①---|
口②③口 |②---|
①口口④ |③---|
口口口口 |④---|
29
口口口口 |①---|
口口口口 |----|
②口口② |②---|
口①①口 |----|
30
②口口② |①---|
口①①口 |----|
口口口口 |②---|
口口口口 |----|
31
口口口口 |①---|
口口口口 |----|
口②③口 |②---|
口①①口 |③---|
32
口口口口 |①---|
①②③① |----|
口口口口 |②---|
口口口口 |③---|
33
口口口口 |①---|
口口口口 |②---|
①口口④ |③---|
口②③口 |④---|
34
口口口口 |①---|
口②①口 |②---|
③口口口 |③---|
口口口口 |----|
35
口口口口 |①---|
口口口口 |----|
②口口③ |②---|
口①①口 |③---|
36
口口口口 |①---|
②口口③ |----|
口①①口 |②---|
口口口口 |③---|
37
口①②口 |①---|
口口口③ |②---|
口口④口 |③---|
口口口口 |④---|
38
口③④口 |①---|
②口口口 |②---|
口①口口 |③---|
口口口口 |④---|
39
口口口口 |①---|
口口口口 |②---|
①②③④ |③---|
口口口口 |④---|
40
口④③口 |①---|
口②①口 |②---|
口口口口 |③---|
口口口口 |④---|
41
口口口口 |①---|
③口口① |②---|
口④②口 |③---|
口口口口 |④---|
42
口口口口 |①---|
口②③口 |----|
口口口口 |②---|
口①①口 |③---|
43
②③④口 |①---|
①口口口 |②---|
口口口口 |③---|
口口口口 |④---|
44
口口口① |①---|
口口口② |②---|
口④③口 |③---|
口口口口 |④---|
45
口口口口 |①---|
口②③口 |②---|
①口口④ |③---|
口口口口 |④---|
46
口口口口 |①---|
口口口口 |②---|
口口口口 |③---|
④③②① |④---|
47
口口口口 |①---|
口②②口 |----|
口①①口 |②---|
口口口口 |----|
48
口①①口 |①---|
口口口口 |----|
口口口口 |----|
口口口口 |----|
49
口口口口 |①---|
口口口口 |----|
②口口② |②---|
①口口① |----|
50
口口口口 |①---|
①口口① |----|
口口口口 |----|
口口口口 |----|
51
口口口口 |①---|
②口口② |----|
口①①口 |②---|
口口口口 |----|
52
口口口口 |①---|
口②③口 |②---|
①口口④ |③---|
口口口口 |④---|
53
口口口口 |①---|
口口口口 |----|
②口口② |②---|
口①①口 |----|
54
②口口② |①---|
口①①口 |----|
口口口口 |②---|
口口口口 |----|
55
口口口口 |①---|
口口口口 |----|
口①①口 |----|
口口口口 |----|


不确定度: 0

最終更新:2012年11月23日 02:06