GyaShan
Lollipop

ADVANCED

Level: 7
BPM: 108
Notes: 455

1
口口口口 |----|
口口口口 |----|
口口口口 |----|
口口口口 |----|
2
①②③口 |①-②-|
⑥口⑤④ |③---|
口口口口 |④-⑤-|
口口口口 |--⑥-|
3
口口口口 |--①-|
口口口口 |②---|
①②④③ |③-④-|
⑤口口口 |--⑤-|
4
口①②口 |--①-|
⑤③④口 |②---|
口口口口 |③-④-|
口口口口 |--⑤-|
5
口⑥⑥口 |①-②-|
口口口⑤ |③-④-|
①口口④ |⑤---|
口②③口 |⑥---|
6
口口口口 |①②③-|
①②③⑨ |④-⑤⑥|
⑧④口口 |⑦---|
口⑦⑥⑤ |⑧-⑨-|
7
①口口口 |①-②③|
②③④口 |④-⑤-|
口⑤口⑥ |⑥---|
口⑦⑧口 |⑦-⑧-|
8
口口④⑤ |①-②-|
①②③口 |③-④⑤|
口⑧⑦⑥ |--⑥-|
口口口口 |⑦-⑧-|
9
⑥口口⑥ |①-②-|
口口口口 |③-④⑤|
①口④⑤ |----|
②③口口 |⑥---|
10
口口口口 |①②③-|
⑨③②① |④-⑤⑥|
⑧口④口 |⑦---|
口⑦⑥⑤ |⑧-⑨-|
11
口②③④ |①-②③|
口①口口 |④-⑤-|
口⑤⑥口 |⑥---|
⑦口⑧口 |⑦-⑧-|
12
口口④⑤ |①-②-|
①②③口 |③-④⑤|
口口口⑥ |--⑥-|
口⑧⑦口 |⑦-⑧-|
13
口口④⑤ |①-②-|
②③口口 |③-④⑤|
①口口⑥ |----|
口⑦口口 |⑥--⑦|
14
口口口口 |①---|
口口口口 |②---|
②③④口 |③---|
口口①口 |④---|
15
口①口口 |①-②③|
②③④口 |④-⑤-|
口⑤⑥口 |⑥-⑦-|
⑦⑨口⑧ |⑧-⑨-|
16
口口口口 |①-②③|
口口⑤口 |④-⑤-|
口④③②
口口①口

⑦⑧⑨口
口⑥⑩口
口口口口 |⑥-⑦⑧|
口口口口 |⑨-⑩-|
17
口口口口 |①-②③|
口口口① |④-⑤-|
口④③②
口⑤口口

口口口口
⑦⑧⑨口
口⑩口口 |⑥-⑦⑧|
口口⑥口 |⑨-⑩-|
18
口④⑤口 |①-②-|
③口口口 |③-④⑤|
①⑥⑦② |--⑥-|
口口口口 |⑦---|
19
口④③② |①-②③|
⑤①口口 |④-⑤-|
口口⑩⑥ |⑥-⑦⑧|
⑦⑧⑨口 |⑨-⑩-|
20
口口口口 |①-②③|
④③②⑤ |④-⑤-|
口①口口
口口口口

口口口口
口⑩口口
口⑦⑧⑨ |⑥-⑦⑧|
口⑥口口 |⑨-⑩-|
21
②③④口 |①-②③|
口口①⑤ |④-⑤-|
⑥口口⑦ |⑥⑦⑧⑨|
⑧⑩口⑨ |⑩---|
22
口⑥⑦口 |①-②-|
③口④⑤ |③-④⑤|
口①②口 |--⑥-|
口口口口 |⑦---|
23
④⑥口⑤ |①---|
口②③口 |②-③-|
①口口① |--④-|
口口口口 |⑤-⑥-|
24
⑦口⑫⑧ |①②③④|
⑨⑪口⑩ |⑤-⑥-|
①口⑥② |⑦⑧⑨⑩|
③⑤口④ |⑪-⑫-|
25
口④⑤口 |①---|
口⑥口口 |②-③-|
①口口① |--④-|
口②③口 |⑤-⑥-|
26
⑦口⑫⑧ |①②③④|
⑨⑪口⑩ |⑤-⑥-|
①口⑥② |⑦⑧⑨⑩|
③⑤口④ |⑪-⑫-|
27
口口口口 |①---|
口口口口 |②-③-|
①口②③ |--④-|
口④⑤口 |⑤---|
28
①口⑥② |①②③④|
③⑤口④ |⑤-⑥-|
⑦口⑫⑧ |⑦⑧⑨⑩|
⑨⑪口⑩ |⑪-⑫-|
29
口①②⑥ |①②③④|
⑤③④口 |⑤-⑥-|
口⑨⑧⑦ |--⑦⑧|
⑩口口口 |⑨-⑩-|
30
口口④口 |①②③-|
口①②③ |--④-|
⑦⑥⑤口 |⑤⑥⑦-|
口口口口 |----|
31
口口口口 |①②③④|
①②③④ |--⑤⑥|
口口口口
口口⑥⑤

口口口口
口口口⑨
⑧口口口 |⑦---|
口⑦口口 |⑧-⑨-|
32
①口口口 |①-②③|
②③④口 |④-⑤-|
口⑤口⑥ |⑥---|
口⑦⑧口 |⑦-⑧-|
33
口口④⑤ |①-②-|
①②③口 |③-④⑤|
口⑧⑦⑥ |--⑥-|
口口口口 |⑦-⑧-|
34
口口口口 |①-②-|
口口口口 |③-④⑤|
①口④⑤
②③口口

口口口口
口口口口
口口口口 |----|
⑥口口⑥ |⑥---|
35
②口口① |①②③④|
④口口③ |⑤-⑥⑦|
口⑤口口
口口⑦⑥

口口口口
⑩口口口
⑨口口口 |⑧---|
口⑧口口 |⑨-⑩-|
36
口②③④ |①-②③|
口①口口 |④-⑤-|
口⑤⑥口 |⑥---|
⑦口⑧口 |⑦-⑧-|
37
口口④⑤ |①-②-|
①②③口 |③-④⑤|
口口口⑥ |--⑥-|
口⑧⑦口 |⑦-⑧-|
38
口口④⑤ |①-②-|
②③口口 |③-④⑤|
①口口⑥ |----|
口口口口 |⑥---|
39
⑦①②⑧ |①②③④|
⑨③④⑩ |⑤-⑥-|
⑪⑤⑫⑥ |⑦⑧⑨⑩|
口口口口 |⑪-⑫-|
40
口①口口 |①-②③|
口②⑪③ |④⑤⑥⑦|
⑩④口⑤ |⑧⑨⑩-|
⑧⑥⑨⑦ |⑪---|
41
①口口② |①②③④|
③⑤口④ |⑤---|
⑥口口⑦ |⑥⑦⑧⑨|
⑧⑩口⑨ |⑩---|
42
④⑤⑥口 |①---|
口②③⑦ |-②③-|
口①口口 |④⑤⑥-|
口口口口 |⑦---|
43
口口口口 |①-②③|
口口口口 |④-⑤-|
口②③④
⑤口①口

⑥口口⑦
⑧口口⑨
口⑩口⑪ |⑥⑦⑧⑨|
口口口口 |⑩-⑪-|
44
⑥口口⑦ |①-②③|
⑧口口⑨ |④-⑤-|
①⑩⑤⑪ |⑥⑦⑧⑨|
口④③② |⑩-⑪-|
45
⑩口口口 |①-②③|
口⑦⑧⑨ |④-⑤-|
①⑤⑥口 |⑥-⑦⑧|
口④③② |⑨-⑩-|
46
口口①口 |①-②-|
②口口③ |③-④⑤|
口④⑤口 |--⑥-|
⑥口口⑦ |⑦---|
47
④⑥口⑤ |①---|
口②③口 |②-③-|
①口口① |--④-|
口口口口 |⑤-⑥-|
48
⑦口⑫⑧ |①②③④|
⑨⑪口⑩ |⑤-⑥-|
①口⑥② |⑦⑧⑨⑩|
③⑤口④ |⑪-⑫-|
49
口④⑤口 |①---|
口⑥口口 |②-③-|
①口口① |--④-|
口②③口 |⑤-⑥-|
50
⑦口⑫⑧ |①②③④|
⑨⑪口⑩ |⑤-⑥-|
①口⑥② |⑦⑧⑨⑩|
③⑤口④ |⑪-⑫-|
51
口口口口 |①---|
口口口口 |②-③-|
①口②③ |--④-|
口④⑤口 |⑤---|
52
①口⑥② |①②③④|
③⑤口④ |⑤-⑥-|
⑦口⑫⑧ |⑦⑧⑨⑩|
⑨⑪口⑩ |⑪-⑫-|
53
口①②⑥ |①②③④|
⑤③④口 |⑤-⑥-|
口⑨⑧⑦ |--⑦⑧|
⑩口口口 |⑨-⑩-|
54
口口④口 |①②③-|
口①②③ |--④-|
⑦⑥⑤口 |⑤⑥⑦-|
口口口口 |----|
55
口口口口 |①---|
①①①① |----|
口口口口 |----|
口口口口 |----|


不确定度: 0

最終更新:2012年11月23日 02:05