GyaShan
Lollipop

EXTREME

Level: 8
BPM: 108
Notes: 595

1
口口口口 |----|
口口口口 |----|
口口口口 |----|
口口口口 |----|
2
⑥口口⑥ |①-②-|
②⑤④③ |③---|
①④⑤① |④-⑤-|
③口口② |--⑥-|
3
口②①口 |--①-|
口④③口 |②---|
③①②④ |③-④-|
⑤口口⑤ |--⑤-|
4
④口口③ |--①-|
②口口① |②---|
③⑤⑤④ |③-④-|
口①②口 |--⑤-|
5
口⑥⑥口 |①-②-|
①①②② |③-④-|
⑤口口⑤ |⑤---|
④④③③ |⑥---|
6
口口口口 |①②③-|
①口③口 |④-⑤⑥|
口②⑥口
口⑤④④

口⑦口⑨
⑧口⑨口
口⑧口口 |⑦---|
口口口口 |⑧-⑨-|
7
④口②口 |①-②③|
口③口口 |④-⑤-|
口口口①
⑤⑤①口

口口⑧口
⑦⑧口⑥
口⑦⑥口 |⑥---|
口口口口 |⑦-⑧-|
8
口④⑤口 |①-②-|
口口口③ |③-④⑤|
②口口口
口口①口

口口口口
口口口⑧
口⑦口口 |--⑥-|
口口⑥口 |⑦-⑧-|
9
口口①口 |①-②-|
②口口口 |③-④⑤|
口口口③
口④口⑤

⑥口口⑥
⑥口口⑥
口口口口 |----|
口口口口 |⑥---|
10
口⑥②口 |①②③-|
⑤①口口 |④-⑤⑥|
口口口③
④④口口

口口口口
⑨口⑧口
口⑧⑦⑨ |⑦---|
口口口口 |⑧-⑨-|
11
④口①① |①-②③|
⑤⑤口口 |④-⑤-|
口口②口
口③口口

口口⑥口
⑧口口⑥
口⑧口⑦ |⑥---|
口口⑦口 |⑦-⑧-|
12
③口⑦口 |①-②-|
口口④⑤ |③-④⑤|
口⑥②口 |--⑥-|
①口口⑧ |⑦-⑧-|
13
口口口口 |①-②-|
①③④口 |③-④⑤|
口口口⑤
口口②口

口口口口
⑥⑦口口
口⑥口口 |----|
口口口口 |⑥--⑦|
14
口口口口 |①---|
口口①口 |②---|
②③④口 |③---|
②③④口 |④---|
15
口③口⑤ |①-②③|
②⑧口⑨ |④-⑤-|
⑥口④① |⑥-⑦-|
口口⑦口 |⑧-⑨-|
16
口口口⑥ |①-②③|
①⑦③⑨ |④-⑤-|
⑩②⑧口 |⑥-⑦⑧|
⑤口口④ |⑨-⑩-|
17
口①口口 |①-②③|
⑤口③口 |④-⑤-|
口口口②
口④口口

口口⑥口
口口口口
口⑧口⑩ |⑥-⑦⑧|
⑨口⑦口 |⑨-⑩-|
18
①口口② |①-②-|
口④口口 |③-④⑤|
③口⑤口 |--⑥-|
⑦口口⑥ |⑦---|
19
口口②口 |①-②③|
①口口③ |④-⑤-|
口④口口
口口⑤口

口口口口
⑥口口⑧
⑨口⑦口 |⑥-⑦⑧|
口⑩口口 |⑨-⑩-|
20
口口②口 |①-②③|
口③口口 |④-⑤-|
⑤口④①
口口口口

口⑧口口
⑦口口口
口口⑨口 |⑥-⑦⑧|
⑩口⑥口 |⑨-⑩-|
21
口口口口 |①-②③|
⑤①③口 |④-⑤-|
口口口②
口④口口

口口⑦口
口⑥口⑨
⑩口⑧口 |⑥⑦⑧⑨|
口口口口 |⑩---|
22
口④口口 |①-②-|
口口⑤③ |③-④⑤|
⑥②口口 |--⑥-|
口⑦口① |⑦---|
23
口口口口 |①---|
①口口① |②-③-|
②口口③
口②③口

口⑥⑥口
④口口⑤
口④⑤口 |--④-|
口口口口 |⑤-⑥-|
24
①口口口 |①②③④|
⑥②口⑥ |⑤-⑥-|
③口⑤口
口④口口

口口口⑦
⑫口⑧⑫
口⑪口⑨ |⑦⑧⑨⑩|
口口⑩口 |⑪-⑫-|
25
②①①③ |①---|
口②③口 |②-③-|
口口口口
口口口口

口⑥⑥口
⑤口口⑤
口口口口 |--④-|
④口口④ |⑤-⑥-|
26
①口口口 |①②③④|
⑥②口⑥ |⑤-⑥-|
③口⑤口
口④口口

口口口⑦
⑫口⑧⑫
口⑪口⑨ |⑦⑧⑨⑩|
口口⑩口 |⑪-⑫-|
27
口⑤⑤口 |①---|
④口口④ |②-③-|
②②③③ |--④-|
①口口① |⑤---|
28
①⑥⑦口 |①②③④|
⑥②口⑥ |⑤-⑥⑦|
③⑤⑤口
口④③①

口口口⑧
⑬口⑨⑬
口⑫口⑩ |⑧⑨⑩⑪|
口口⑪口 |⑫-⑬-|
29
口①①口 |①②③④|
口口②口 |⑤-⑥-|
③⑥⑥口
⑤口口④

口⑩⑩口
⑨⑨口口
口口口⑧ |--⑦⑧|
口⑦⑦口 |⑨-⑩-|
30
⑤④④① |①②③-|
口⑥②口 |--④-|
口③⑦口 |⑤⑥⑦-|
口口口口 |----|
31
口口口口 |①②③④|
①口③口 |--⑤⑥|
口②⑥④
口⑤口口

口⑦口⑨
⑧口⑨口
口⑧口口 |⑦---|
口口口口 |⑧-⑨-|
32
④口②口 |①-②③|
口③口口 |④-⑤-|
口口口口
⑤⑤①①

口口⑧口
⑦⑧口⑥
口⑦⑥口 |⑥---|
口口口口 |⑦-⑧-|
33
口④口口 |①-②-|
口口⑤③ |③-④⑤|
②口口口
口口①口

口口口口
口口口⑧
口⑦口口 |--⑥-|
口口⑥口 |⑦-⑧-|
34
口口①口 |①-②-|
②口口口 |③-④⑤|
⑤口口③
口④口口

⑥口口⑥
⑥口口⑥
口口口口 |----|
口口口口 |⑥---|
35
口⑦②口 |①②③④|
⑥①口口 |⑤-⑥⑦|
口口口③
口⑤④口

口口口口
⑩口⑨口
口⑨⑧⑩ |⑧---|
口口口口 |⑨-⑩-|
36
④口①① |①-②③|
口口口口 |④-⑤-|
⑤⑤②口
口③口口

口口⑥口
⑧口口⑥
口⑧口⑦ |⑥---|
口口⑦口 |⑦-⑧-|
37
③口⑦口 |①-②-|
口口④口 |③-④⑤|
口⑥②⑤ |--⑥-|
①口口⑧ |⑦-⑧-|
38
口口口口 |①-②-|
①③④口 |③-④⑤|
口口口⑤
口口②口

口口口口
⑥⑦口口
口⑥口口 |----|
口口口口 |⑥--⑦|
39
口①口口 |①②③④|
口口①② |⑤-⑥-|
③口⑥⑥
⑤⑤口④

口口⑦口
⑧⑩口⑨
⑫⑫口口 |⑦⑧⑨⑩|
口口⑪⑪ |⑪-⑫-|
40
④⑥口口 |①-②③|
②口口口 |④⑤⑥⑦|
口口口口
①③⑤⑦

口口⑧⑩
⑪⑪口⑩
口口口⑨ |⑧⑨⑩-|
口口口口 |⑪---|
41
口口口口 |①②③④|
口⑥①口 |⑤---|
⑦⑧③② |⑥⑦⑧⑨|
⑨⑩⑤④ |⑩---|
42
口②③口 |①---|
①⑤口① |-②③-|
④⑦⑦⑥ |④⑤⑥-|
口口口口 |⑦---|
43
口口口口 |①-②③|
口③口⑤ |④-⑤-|
②口口口
口①④口

口⑨⑥口
口⑩⑪口
口⑦⑧口 |⑥⑦⑧⑨|
口口口口 |⑩-⑪-|
44
口⑦口口 |①-②③|
⑥⑤⑧口 |④-⑤-|
①⑨③口 |⑥⑦⑧⑨|
⑩②⑪④ |⑩-⑪-|
45
口口③口 |①-②③|
口②⑩④ |④-⑤-|
⑤口⑧① |⑥-⑦⑧|
口⑦⑥⑨ |⑨-⑩-|
46
口口口① |①-②-|
②口口口 |③-④⑤|
口③口口
④口⑤口

⑥⑥⑥口
口⑦⑥口
口⑦⑦⑦ |--⑥-|
口口口口 |⑦---|
47
口口口口 |①---|
①口口① |②-③-|
②口口③
口②③口

口⑥⑥口
④口口⑤
口④⑤口 |--④-|
口口口口 |⑤-⑥-|
48
①口口口 |①②③④|
⑥②口⑥ |⑤-⑥-|
③口⑤口
口④口口

口口口⑦
⑫口⑧⑫
口⑪口⑨ |⑦⑧⑨⑩|
口口⑩口 |⑪-⑫-|
49
②①①③ |①---|
口②③口 |②-③-|
口口口口
口口口口

口⑥⑥口
⑤口口⑤
口口口口 |--④-|
④口口④ |⑤-⑥-|
50
①口口口 |①②③④|
⑥②口⑥ |⑤-⑥-|
③口⑤口
口④口口

口口口⑦
⑫口⑧⑫
口⑪口⑨ |⑦⑧⑨⑩|
口口⑩口 |⑪-⑫-|
51
口⑤⑤口 |①---|
④口口④ |②-③-|
②②③③ |--④-|
①口口① |⑤---|
52
①⑥⑦口 |①②③④|
⑥②口⑥ |⑤-⑥⑦|
③⑤⑤口
口④③①

口口口⑧
⑬口⑨⑬
口⑫口⑩ |⑧⑨⑩⑪|
口口⑪口 |⑫-⑬-|
53
口①①口 |①②③④|
口口②口 |⑤-⑥-|
③⑥⑥口
⑤口口④

口⑩⑩口
⑨⑨口口
口口口⑧ |--⑦⑧|
口⑦⑦口 |⑨-⑩-|
54
⑤④④① |①②③-|
口⑥②口 |--④-|
口③⑦口 |⑤⑥⑦-|
口口口口 |----|
55
口口口口 |①---|
口口口口 |----|
①口口① |----|
口①①口 |----|


不确定度: 0

最終更新:2012年11月23日 02:05