鬼帝の剣
ALI PROJECT

BASIC

Level: 4
BPM: 135
Notes: 246

1
口口口口 |----|
口口口口 |----|
口口口口 |----|
口口口口 |----|
2
口口口口 |①---|
口口口口 |----|
②③④口 |--②-|
口①①口 |③-④-|
3
口③③口 |①---|
口②②① |----|
口口口口 |②---|
口口口口 |③---|
4
口口口口 |①---|
口②③口 |----|
口①①口 |----|
口口口口 |②-③-|
5
口口口口 |①---|
口口口口 |②-③-|
口③②① |④---|
④口口口 |----|
6
口③口口 |①---|
口口②口 |②---|
口口④① |③---|
口口口口 |④---|
7
口口口口 |①-②-|
口①口口 |③-④-|
②③④口 |----|
口口口口 |----|
8
口口口口 |①---|
口③③口 |②---|
口①①口 |③---|
口②②口 |----|
9
口口口③ |①---|
口口口② |②---|
口口口① |③---|
口口口口 |----|
10
口①①口 |①---|
口口口口 |----|
口②②口 |②---|
口口口口 |----|
11
①口口口 |①---|
口②口口 |②---|
③口口口 |③---|
④口口口 |④---|
12
口口口口 |①---|
口②②口 |----|
口口口口 |②---|
口①①口 |----|
13
口③③口 |①---|
口②②口 |②---|
口①①口 |③---|
口口口口 |----|
14
①②口① |①---|
口口③口 |----|
口口口口 |②---|
口口口口 |③---|
15
①口②① |①---|
口③口口 |----|
口口口口 |②---|
口口口口 |③---|
16
①口口① |①---|
口口口口 |----|
口口口口 |----|
口口口口 |----|
17
口⑥⑤口 |--①-|
②口口① |--②-|
口④③口 |③-④-|
口口口口 |⑤-⑥-|
18
口口口口 |①---|
口①①口 |----|
口口口口 |----|
口口口口 |----|
19
口口口口 |----|
口口口口 |----|
口口口口 |----|
口口口口 |----|
20
口①口口 |①---|
口③②口 |②-③-|
口口④口 |--④-|
口口口口 |----|
21
口口⑤口 |①---|
口④口⑥ |②-③-|
口②③口 |--④-|
口口①口 |⑤-⑥-|
22
口①口口 |①---|
口③②口 |②-③-|
口口④口 |--④-|
口口口口 |----|
23
口口口口 |①---|
口口口口 |----|
口口口口 |----|
口①①口 |----|
24
②①口口 |----|
口口口口 |①---|
口口口口 |----|
口口口口 |②---|
25
口口口口 |①---|
口①口口 |②---|
口口②口 |③---|
口口④③ |④---|
26
口口口口 |----|
口口口口 |①---|
口口口口 |----|
②①口口 |②---|
27
口口④③ |①---|
口口②口 |②---|
口①口口 |③---|
口口口口 |④---|
28
口口口口 |--①-|
①②③④ |②-③-|
⑤⑥口口 |④---|
口口口口 |⑤-⑥-|
29
口口口口 |①-②-|
口口口口 |③-④-|
口口①② |--⑤-|
③④口⑤ |----|
30
口口口口 |①---|
口口②口 |--②-|
③④⑤① |--③-|
口口口口 |④-⑤-|
31
口口口口 |①---|
口口口口 |--②-|
口②口口 |--③-|
①⑤④③ |④-⑤-|
32
口口口口 |----|
口②①口 |①---|
口①②口 |----|
口口口口 |②---|
33
口口口口 |①---|
口③②口 |②---|
④口口① |③---|
口口口口 |④---|
34
口口口口 |①---|
①⑤④③ |--②-|
口②口口 |--③-|
口口口口 |④-⑤-|
35
③④⑤① |①---|
口口②口 |--②-|
口口口口 |--③-|
口口口口 |④-⑤-|
36
口口口③ |①---|
口口④② |②---|
口口口① |③---|
口口口口 |④---|
37
口口口口 |①-②-|
口口口口 |③---|
①②③口 |----|
口口口口 |----|
38
口①口① |①---|
口口口口 |----|
口②口② |②---|
口口口口 |----|
39
口口口口 |①---|
①口①口 |----|
口口口口 |②---|
②口②口 |----|
40
①②③口 |①-②-|
口④⑤⑥ |③-④-|
⑦⑧口口 |⑤-⑥-|
口口口口 |⑦-⑧-|
41
口口口口 |①-②-|
口口口口 |③-④-|
口口①② |⑤---|
③④⑤口 |----|
42
①口①口 |①---|
口口口口 |----|
②口②口 |②---|
口口口口 |----|
43
口口口口 |①---|
口①口① |----|
口口口口 |②---|
口②口② |----|
44
口③②① |--①-|
⑥⑤④口 |②-③-|
口口口口 |④-⑤-|
口口口口 |⑥---|
45
口口口口 |--①-|
口口③口 |----|
口②口① |②---|
口口口口 |③---|
46
口①口① |①---|
口口口口 |----|
口口口口 |----|
口口口口 |----|
47
口口口口 |----|
口口口口 |----|
口口口口 |----|
口口口口 |----|
48
口口口口 |①---|
口③③口 |②---|
口①①口 |③---|
口②②口 |----|
49
口口口③ |①---|
口口口② |②---|
口口口① |③---|
口口口口 |----|
50
口①①口 |①---|
口口口口 |----|
口②②口 |②---|
口口口口 |----|
51
①口口口 |①---|
口②口口 |②---|
③口口口 |③---|
④口口口 |④---|
52
口口口口 |①---|
口②②口 |----|
口口口口 |②---|
口①①口 |----|
53
口③③口 |①---|
口②②口 |②---|
口①①口 |③---|
口口口口 |----|
54
口口口口 |①---|
口口口口 |----|
口③口口 |②---|
①口②① |③---|
55
口口口口 |①---|
口口口口 |----|
口口③口 |②---|
①②口① |③---|
56
口口口口 |①---|
口口口口 |----|
口口口口 |----|
①口口① |----|
57
口⑥⑤口 |--①-|
②口口① |--②-|
口④③口 |③-④-|
口口口口 |⑤-⑥-|
58
口口口口 |①---|
口①①口 |----|
口口口口 |----|
口口口口 |----|
59
口口口口 |----|
口口口口 |----|
口口口口 |----|
口口口口 |----|
60
口①口口 |①---|
口③②口 |②-③-|
口口④口 |--④-|
口口口口 |----|
61
口口⑤口 |①---|
口④口⑥ |②-③-|
口②③口 |--④-|
口口①口 |⑤-⑥-|
62
口①口口 |①---|
口③②口 |②-③-|
口口④口 |--④-|
口口口口 |----|
63
口口口口 |①---|
口口口口 |----|
口口口口 |----|
口①①口 |----|


不确定度: 0

最終更新:2012年11月23日 02:04