鬼帝の剣
ALI PROJECT

ADVANCED

Level: 6
BPM: 135
Notes: 434

1
口口口口 |----|
口口口口 |----|
口口口口 |----|
口口口口 |----|
2
口口④口 |①---|
口④③口 |----|
口③②口 |--②-|
口②①① |③-④-|
3
①①口口 |①---|
②③③② |----|
②③③② |②---|
口口口口 |③---|
4
口②口口 |①---|
口③②口 |----|
口口③口 |----|
①①①① |②-③-|
5
口口口口 |①---|
②口口② |②-③-|
③①口③ |④---|
④口①④ |----|
6
口①③⑥ |①-②-|
②④⑦口 |③-④-|
⑤⑧口口 |⑤-⑥-|
口口口口 |⑦-⑧-|
7
口口口口 |①-②-|
口⑥口② |③-④-|
口口③口 |⑤---|
①④口⑤ |⑥---|
8
①②③口 |①②③-|
口⑥⑤④ |④⑤⑥-|
口口口口
口口口口

口口口口
⑨口口⑨
口⑧⑧口 |⑦---|
口⑦⑦口 |⑧--⑨|
9
①口口② |①-②-|
口⑥③口 |③-④-|
口⑤⑥口 |⑤-⑥-|
④口⑧⑦ |--⑦⑧|
10
口口口⑥ |①-②-|
②口口⑦ |--③④|
③④⑤口 |⑤-⑥-|
口①口口 |--⑦-|
11
口③口口 |①-②-|
口⑥④口 |③-④-|
②⑤⑦口 |⑤-⑥-|
口口①口 |⑦---|
12
口⑦⑦口 |①②③-|
口⑧⑧口 |④⑤⑥-|
④⑤⑥口 |⑦-⑧-|
口③②① |----|
13
口⑦⑦口 |①②③-|
口⑧⑧口 |④⑤⑥-|
口⑥⑤④ |⑦-⑧-|
①②③口 |----|
14
⑧⑦⑥⑤ |①---|
②③④口 |②---|
口口②① |③-④-⑤-|
口①口口 |⑥-⑦-⑧-|
15
⑨⑧⑦⑥ |①---|
⑤④③② |②-③-|
①②口口 |④-⑤-⑥-|
口口①口 |⑦-⑧-⑨-|
16
口口口口 |①---|
口口口口 |----|
口①①口 |----|
口口口口 |----|
17
④⑦口⑤ |--①-|
⑧口⑥③ |--②-|
②口口口 |③-④-|
口①①口 |⑤⑥⑦⑧|
18
口口口口 |①---|
口口口口 |----|
口①①口 |----|
口口口口 |----|
19
口口口口 |----|
口口口口 |----|
口口口口 |----|
口口口口 |----|
20
①①口口 |①---|
口④③口 |②-③-|
口④③口 |--④-|
口口②② |----|
21
口口①① |①---|
③口⑥④ |②-③-|
③⑤口④ |--④-|
②②口口 |⑤-⑥-|
22
①①口口 |①---|
口③④口 |②-③-|
口③④口 |--④-|
口口②② |----|
23
口口口口 |①---|
①口口① |----|
①口口① |----|
口口口口 |----|
24
口口口口 |----|
口③①口 |①---|
口②口口 |----|
口口口口 |②--③|
25
④口口⑤ |①-②-|
③口口④ |--③-|
②口①③ |--④-|
⑥口口② |⑤-⑥-|
26
口口口口 |----|
口③②口 |①---|
口①口口 |----|
口口口口 |②--③|
27
⑥口口② |①-②-|
②口口③ |--③-|
③口①④ |--④-|
④口口⑤ |⑤-⑥-|
28
口口③口 |--①-|
①口口⑤ |②-③-|
口口口口 |④---|
口②⑥④ |⑤-⑥-|
29
口①⑤口 |①-②-|
口口④⑤ |③-④-|
口③口口 |--⑤-|
②口口口 |----|
30
②口⑥口 |①-②-|
口④口口 |--③-|
口口⑤口 |--④-|
口③口① |⑤-⑥-|
31
②口⑥口 |①-②-|
口④口口 |--③-|
口口⑤口 |--④-|
口③口① |⑤-⑥-|
32
口口口口 |----|
口口①口 |①---|
口①口口
口口口口

口口口口
口②口口
口③②口 |----|
口口口口 |②--③|
33
口口⑥口 |①-②-|
③口①② |--③-|
口口口⑤ |--④-|
口④口口 |⑤-⑥-|
34
口口口⑤ |①-②-|
口①①⑥ |--③-|
口②②④ |--④-|
③口口③ |⑤-⑥-|
35
④口口④ |①-②-|
⑤口③口 |③-④-|
⑦②口口 |--⑤-|
⑥口①口 |⑥-⑦-|
36
口①口口 |①---|
口口①口 |②---|
口②口口
口口②口

口口口口
口④口③
④口③口 |③---|
口口⑤口 |④--⑤|
37
口③③口 |①-②-|
②口口② |③---|
口①口口 |----|
口口口口 |----|
38
口口口④ |①-②-③-|
口口⑥口 |④--⑤|
口⑤口③ |⑥---|
①口②口 |----|
39
口②口① |①-②-③-|
③口⑤口 |④--⑤|
口⑥口口 |⑥---|
④口口口 |----|
40
①口③口 |①-②-|
口②口④ |③-④-|
⑤口⑦口 |⑤-⑥-|
口⑥口⑧ |⑦-⑧-|
41
口②口④ |①-②-|
①口③口 |③-④-|
口⑤⑤口 |⑤---|
口口口口 |----|
42
口口口④ |①-②-③-|
口口⑥口 |④--⑤|
口⑤口③ |⑥---|
①口②口 |----|
43
口②口① |①-②-③-|
③口⑤口 |④--⑤|
口⑥口口 |⑥---|
④口口口 |----|
44
口③②① |--①-|
口③②① |②-③-|
④⑤⑥口 |④-⑤-|
④⑤⑥口 |⑥---|
45
①口口口 |--①-|
②⑤口口 |②-③-|
口⑥⑦④ |④-⑤-|
口口口③ |⑥--⑦|
46
口口口口 |①---|
口口①口 |----|
口口口口 |----|
口口口口 |----|
47
口口口口 |----|
口口口口 |----|
口口口口 |----|
口口口口 |----|
48
①②③口 |①②③-|
口⑥⑤④ |④⑤⑥-|
口口口口
口口口口

口口口口
⑨口口⑨
口⑧⑧口 |⑦---|
口⑦⑦口 |⑧--⑨|
49
①口口② |①-②-|
口⑥③口 |③-④-|
口⑤⑥口 |⑤-⑥-|
④口⑧⑦ |--⑦⑧|
50
口口口⑥ |①-②-|
②口口⑦ |--③④|
③④⑤口 |⑤-⑥-|
口①口口 |--⑦-|
51
口③口口 |①-②-|
口⑥④口 |③-④-|
②⑤⑦口 |⑤-⑥-|
口口①口 |⑦---|
52
口⑦⑦口 |①②③-|
口⑧⑧口 |④⑤⑥-|
④⑤⑥口 |⑦-⑧-|
口③②① |----|
53
口⑦⑦口 |①②③-|
口⑧⑧口 |④⑤⑥-|
口⑥⑤④ |⑦-⑧-|
①②③口 |----|
54
⑧⑦⑥⑤ |①---|
②③④口 |②---|
口口②① |③-④-⑤-|
口①口口 |⑥-⑦-⑧-|
55
⑨⑧⑦⑥ |①---|
⑤④③② |②-③-|
①②口口 |④-⑤-⑥-|
口口①口 |⑦-⑧-⑨-|
56
口口口口 |①---|
口口口口 |----|
口①①口 |----|
口口口口 |----|
57
④⑦口⑤ |--①-|
⑧口⑥③ |--②-|
②口口口 |③-④-|
口①①口 |⑤⑥⑦⑧|
58
口口口口 |①---|
口口口口 |----|
口①①口 |----|
口口口口 |----|
59
口口口口 |----|
口口口口 |----|
口口口口 |----|
口口口口 |----|
60
①①口口 |①---|
口④③口 |②-③-|
口④③口 |--④-|
口口②② |----|
61
口口①① |①---|
③口⑥④ |②-③-|
③⑤口④ |--④-|
②②口口 |⑤-⑥-|
62
①①口口 |①---|
口③④口 |②-③-|
口③④口 |--④-|
口口②② |----|
63
口口口口 |①---|
①口口① |----|
①口口① |----|
口口口口 |----|


不确定度: 0

最終更新:2012年11月23日 02:04