Golden House
bma群星

BASIC

Level: 4
BPM: 130
Notes: 293

1
口口口口 |----|
口口口口 |----|
口口口口 |----|
口口口口 |----|
2
口口口口 |①---|
口①①口 |----|
口口口口 |----|
口口口口 |----|
3
口口口口 |----|
口口口口 |----|
口口口口 |----|
口口口口 |----|
4
口口口口 |①--②|
口口口口 |--③-|
口③②口 |--④-|
④⑤⑥① |⑤-⑥-|
5
口口口口 |①--②|
口口口口 |--③-|
口③②口 |----|
口口口① |----|
6
口口口口 |①--②|
口③②口 |--③-|
④⑤⑥① |--④-|
口口口口 |⑤-⑥-|
7
口口口口 |①--②|
口③②口 |--③-|
口口口① |----|
口口口口 |----|
8
口口口口 |①--②|
口③②口 |--③-|
④⑤⑥① |--④-|
口口口口 |⑤-⑥-|
9
口口口口 |①--②|
口③②口 |--③-|
口口口① |----|
口口口口 |----|
10
口③②口 |①--②|
④⑤⑥① |--③-|
口口口口 |--④-|
口口口口 |⑤-⑥-|
11
口③②口 |①--②|
口口口① |--③-|
口口口口 |----|
口口口口 |----|
12
口口口口 |①---|
③④⑤口 |②---|
口①②口 |③-④-|
口口口口 |⑤---|
13
口口口口 |①---|
口⑤④③ |②---|
①口口② |③-④-|
口口口口 |⑤---|
14
口口口口 |①---|
③④⑤⑥ |②---|
口①②口 |③-④-|
口口口口 |⑤-⑥-|
15
④③②① |①-②-|
口口口口 |③-④-|
⑤口⑥口 |⑤-⑥-|
口⑦口口 |⑦---|
16
口口口口 |①---|
③④⑤口 |②---|
口①②口 |③-④-|
口口口口 |⑤---|
17
口口口口 |①---|
口⑤④③ |②---|
①口口② |③-④-|
口口口口 |⑤---|
18
口口口口 |①---|
③④⑤⑥ |②---|
口①②口 |③-④-|
口口口口 |⑤-⑥-|
19
④③②① |①-②-|
口口口口 |③-④-|
⑤口⑥口 |⑤-⑥-|
口⑦口口 |⑦---|
20
口口口口 |----|
口①①口 |①---|
②口口② |----|
口口口口 |②---|
21
口口口口 |----|
口①①口 |①---|
②口口② |②---|
口口口口 |----|
22
口口口口 |----|
口①①口 |①---|
②口口② |----|
口口口口 |②---|
23
口口口口 |----|
口①①口 |①---|
②③③② |②---|
口口口口 |③---|
24
口口口口 |①---|
口口口口 |②---|
③⑤口④ |③-④-|
口①②口 |⑤---|
25
④口口口 |①---|
口①②③ |②---|
口口口口 |③---|
口口口口 |④---|
26
口口口口 |①---|
口③④⑤ |②---|
①口口② |③-④-|
口口口口 |⑤---|
27
口①③② |①---|
口口口口 |②---|
口口口口 |③---|
口口口口 |----|
28
口口口口 |①---|
口口口口 |②---|
③⑤口④ |③-④-|
口①②口 |⑤---|
29
口口口口 |①---|
口①②③ |②---|
口口口口 |③---|
口口口口 |----|
30
口口口口 |①---|
口③④⑤ |②---|
①口口② |③-④-|
口口口口 |⑤---|
31
口①③② |①---|
口口口口 |②---|
④口口口 |③---|
口口口口 |④---|
32
口口口口 |①---|
②口口口 |②---|
口③④① |③---|
口口口口 |④---|
33
口③②口 |①---|
口口口① |②---|
口口口口 |③---|
④口口口 |④---|
34
口口口口 |①---|
口口口口 |②---|
②口口口 |③---|
口③④① |④---|
35
口④口口 |①---|
口③②口 |②---|
口口口① |③---|
口口口口 |④---|
36
口口①口 |①---|
口②③口 |②---|
口口口④ |③---|
口口口口 |④---|
37
口口口口 |①---|
口口口口 |②---|
③口口口 |③---|
口②①口 |----|
38
①口口② |①---|
③口口④ |②---|
口口口口 |③---|
口口口口 |④---|
39
口口口口 |①---|
口③③口 |②---|
口②②口 |③---|
口①①口 |----|
40
口口口口 |①---|
②③④口 |----|
①口口① |--②-|
口口口口 |③-④-|
41
口口口口 |①---|
口口口① |----|
口口口口 |----|
②口口② |②---|
42
口口口口 |①---|
口④③② |----|
①口口① |--②-|
口口口口 |③-④-|
43
口口口口 |①---|
①口口口 |----|
口口口口 |----|
口②②口 |②---|
44
口口口口 |①---|
③口口③ |----|
②①①② |②---|
口口口口 |③---|
45
①口口① |①---|
口口口口 |----|
口②②口 |②---|
口口口口 |----|
46
口口口口 |①---|
口①①口 |----|
②口口② |②---|
口口口口 |----|
47
口口口口 |①---|
①口口① |----|
口口口口 |----|
口口口口 |----|
48
口口口口 |①---|
③④⑤口 |②---|
口①②口 |③-④-|
口口口口 |⑤---|
49
口口口口 |①---|
口⑤④③ |②---|
①口口② |③-④-|
口口口口 |⑤---|
50
口口口口 |①---|
③④⑤⑥ |②---|
口①②口 |③-④-|
口口口口 |⑤-⑥-|
51
④③②① |①-②-|
口口口口 |③-④-|
⑤口⑥口 |⑤-⑥-|
口⑦口口 |⑦---|
52
口口口口 |①---|
③④⑤口 |②---|
口①②口 |③-④-|
口口口口 |⑤---|
53
口口口口 |①---|
口⑤④③ |②---|
①口口② |③-④-|
口口口口 |⑤---|
54
口口口口 |①---|
③④⑤⑥ |②---|
口①②口 |③-④-|
口口口口 |⑤-⑥-|
55
④③②① |①-②-|
口口口口 |③-④-|
⑤口⑥口 |⑤-⑥-|
口⑦口口 |⑦---|
56
口口口口 |①---|
③④⑤口 |②---|
口①②口 |③-④-|
口口口口 |⑤---|
57
口口口口 |①---|
口⑤④③ |②---|
①口口② |③-④-|
口口口口 |⑤---|
58
口口口口 |①---|
③④⑤⑥ |②---|
口①②口 |③-④-|
口口口口 |⑤-⑥-|
59
④③②① |①-②-|
口口口口 |③-④-|
⑤口⑥口 |⑤-⑥-|
口⑦口口 |⑦---|
60
口口口口 |①---|
③④⑤口 |②---|
口①②口 |③-④-|
口口口口 |⑤---|
61
口口口口 |①---|
口⑤④③ |②---|
①口口② |③-④-|
口口口口 |⑤---|
62
口口口口 |①---|
③④⑤⑥ |②---|
口①②口 |③-④-|
口口口口 |⑤-⑥-|
63
④③②① |①-②-|
口口口口 |③-④-|
口⑤⑥口 |⑤-⑥-|
口口⑦口 |⑦---|


不确定度: 0

最終更新:2012年11月23日 02:01